Гадкий я 2 / Despicable Me 2 (Пьер Соффин / Pierre Coffin, Крис Рено / Chris Renaud) [2013, Мультфильм, комедия, приключения, семейный, HDRip] Dub

Ответить на тему
 
Автор Сообщение

user ®

Стаж: 13 лет

Сообщений: 15041

Пост Пост: #1 от 19-Окт-2013 21:45

[Цитировать]

Гадкий я 2 / Despicable Me 2
Страна: США
Жанр: Мультфильм, комедия, приключения, семейный
Продолжительность: 01:37:59
Год выпуска: 2013
Перевод: Профессиональный (дублированный) (лицензия)
Субтитры: нет
Режиссёр: Пьер Соффин / Pierre Coffin, Крис Рено / Chris Renaud
Роли дублировали: Сергей Бурунов, Владимир Еремин, Лиза Мартиросова, Диомид Виноградов, Прохор Чеховской
Описание: В то время как Грю, бывший суперзлодей, приспосабливается к семейной жизни и пытается честным трудом зарабатывать в сфере бизнеса, тайные лаборатории Арктики оказываются украденными. Анти-Злодейская лига решает, что она нуждается в помощи Грю и его новобранцев в расследовании.
Семпл: http://sendfile.su/883611

Качество: HDRip [Рип с BDRip 720p]
Формат: AVI
Видео: Xvid 720x384 23.976fps 1735kbps
Аудио: Dolby AC3 48000Hz 6ch 384kbps

MediaInfo

GeneralComplete name : P:\Gadk1y.Ya.2.2013.D.HDRip.aviFormat : AVIFormat/Info : Audio Video InterleaveFile size : 1.46 GiBDuration : 1h 37mnOverall bit rate : 2 129 KbpsWriting application : VirtualDubModRus 1.5.10.2 (build 2542/release)Writing library : VirtualDubMod build 2542/release
VideoID : 0Format : MPEG-4 VisualFormat profile : Advanced Simple@L5Format settings, BVOP : YesFormat settings, QPel : NoFormat settings, GMC : No warppointsFormat settings, Matrix : CustomCodec ID : XVIDCodec ID/Hint : XviDDuration : 1h 37mnBit rate : 1 736 KbpsWidth : 720 pixelsHeight : 384 pixelsDisplay aspect ratio : 1.85:1Frame rate : 23.976 fpsColor space : YUVChroma subsampling : 4:2:0Bit depth : 8 bitsScan type : ProgressiveCompression mode : LossyBits/(Pixel*Frame) : 0.262Stream size : 1.19 GiB (82%)Writing library : XviD 1.2.1 (UTC 2008-12-04)
AudioID : 1Format : AC-3Format/Info : Audio Coding 3Mode extension : CM (complete main)Format settings, Endianness : BigCodec ID : 2000Duration : 1h 37mnBit rate mode : ConstantBit rate : 384 KbpsChannel count : 6 channelsChannel positions : Front: L C R, Side: L R, LFESampling rate : 48.0 KHzBit depth : 16 bitsCompression mode : LossyStream size : 269 MiB (18%)Alignment : Split accross interleavesInterleave, duration : 42 ms (1.00 video frame)Interleave, preload duration : 500 ms

Скриншоты

Скачать

Скачать торрент! Гадкий я 2 / Despicable Me 2 (Пьер Соффин / Pierre Coffin, Крис Рено / Chris Renaud) [2013, Мультфильм, комедия, приключения, семейный, HDRip] Dub

Как скачивать? · Что такое торрент? · Рейтинг и ограничения

Сайт не распространяет и не хранит электронные версии произведений, а лишь предоставляет доступ к создаваемому пользователями каталогу ссылок на торрент-файлы, которые содержат только списки хеш-сумм

[Профиль] [ЛС]
Показать сообщения:    
Ответить на тему

Текущее время: Сегодня 12:00

Часовой пояс: GMT + 4



Вы не можете начинать темы
Вы не можете отвечать на сообщения
Вы не можете редактировать свои сообщения
Вы не можете удалять свои сообщения
Вы не можете голосовать в опросах
Вы не можете прикреплять файлы к сообщениям
Вы не можете скачивать файлы