Гадкий я 2 / Despicable Me 2 (Пьер Соффин / Pierre Coffin, Крис Рено / Chris Renaud) [2013, мультфильмы, комедия, HDRip] Dub

Ответить на тему
 
Автор Сообщение

user ®

Стаж: 13 лет

Сообщений: 15041

Пост Пост: #1 от 19-Окт-2013 21:45

[Цитировать]

Гадкий я 2 / Despicable Me 2
Страна: США
Жанр: мультфильмы, комедия
Продолжительность: 01:37:58
Год выпуска: 2013
Перевод: Профессиональный (дублированный) лицензия
Русские субтитры: нет
Режиссёр: Пьер Соффин / Pierre Coffin, Крис Рено / Chris Renaud
Роли озвучивали: Стив Карелл, Кен Жонг, Кристен Уиг, Миранда Косгров, Мойзес Ариас, Бенджамин Брэтт, Стив Куган, Расселл Брэнд, Элси Фишер, Дэна Гайер
Описание: В то время, как бывший супер злодей, приспосабливается к семейной жизни и пытается честным трудом зарабатывать в сфере бизнеса: производство желе и разной вкуснятины, случается невероятное: тайные лаборатории Арктики с очень опасным средством, которое способно превратить обычного кролика в мутанта-уничтожителя, оказываются украденными... кто и зачем это сделал? Анти-Злодейская Лига решает, что она нуждается в помощи Грю и его новобранцев. Главный герой вместе со своей напарницей начинают бурное расследование со списками подозреваемых, которые могли совершить такое злобное воровство. Но Грю опираясь на свою квалифицированность, решает, что именно старый "друг" Эль Мачо и украл Иследовательский центр Арктики. Следствие во главе бывшего преступника и неочень опытной дамы длится уже долгое время. И вот, неожиданный поворот судьбы - пока наш супер герой борется за спасение мира и человечества, его миньонов спокойно похитили для некоторых злонамеренных целей. Что же делать теперь, когда главные помощники бывшего злодея украдены? Где искать помощи? Но попытки Грю - отца троих девочек и по совместительству спасителя планеты, продолжаются, он и дальше упорно разыскивает нового гения преступного мира, не может же он очернить свою репутацию и растоптать злодейский опыт, который он зарабатывал десятками лет.
Семпл: http://multi-up.com/914760
Качество: HDRip (исходник не известен)
Формат: AVI
Видео: Xvid 640x352 23.98fps 861 Kbps
Аудио: Dolby AC3 48000Hz stereo 128kbps
Субтитры: Отсутствуют

Подробные технические данные

Format : AVIFormat/Info : Audio Video InterleaveFile size : 700 MiBDuration : 1h 37mnOverall bit rate : 999 KbpsWriting application : VirtualDubMod 1.5.10.3 (build 2550/release)Writing library : VirtualDubMod build 2550/release
VideoID : 0Format : MPEG-4 VisualFormat profile : Advanced Simple@L5Format settings, BVOP : YesFormat settings, QPel : NoFormat settings, GMC : No warppointsFormat settings, Matrix : CustomCodec ID : XVIDCodec ID/Hint : XviDDuration : 1h 37mnBit rate : 861 KbpsWidth : 640 pixelsHeight : 352 pixelsDisplay aspect ratio : 16:9Frame rate : 23.976 fpsResolution : 8 bitsColorimetry : 4:2:0Scan type : ProgressiveBits/(Pixel*Frame) : 0.159Stream size : 603 MiB (86%)Writing library : XviD 1.2.1 (UTC 2008-12-04)
AudioID : 1Format : AC-3Format/Info : Audio Coding 3Codec ID : 2000Duration : 1h 37mnBit rate mode : ConstantBit rate : 128 KbpsChannel(s) : 2 channelsChannel positions : L RSampling rate : 48.0 KHzStream size : 89.7 MiB (13%)Alignment : Split accross interleavesInterleave, duration : 42 ms (1.00 video frame)Interleave, preload duration : 500 ms

Скриншоты

Скачать

Скачать торрент! Гадкий я 2 / Despicable Me 2 (Пьер Соффин / Pierre Coffin, Крис Рено / Chris Renaud) [2013, мультфильмы, комедия, HDRip] Dub

Как скачивать? · Что такое торрент? · Рейтинг и ограничения

Сайт не распространяет и не хранит электронные версии произведений, а лишь предоставляет доступ к создаваемому пользователями каталогу ссылок на торрент-файлы, которые содержат только списки хеш-сумм

[Профиль] [ЛС]
Показать сообщения:    
Ответить на тему

Текущее время: Сегодня 10:30

Часовой пояс: GMT + 4



Вы не можете начинать темы
Вы не можете отвечать на сообщения
Вы не можете редактировать свои сообщения
Вы не можете удалять свои сообщения
Вы не можете голосовать в опросах
Вы не можете прикреплять файлы к сообщениям
Вы не можете скачивать файлы