Человек из стали / Man of Steel (Зак Снайдер / Zack Snyder) [2013, фантастика, фэнтези, боевик, BDRip] DUB + Original Eng + Subs

Ответить на тему
 
Автор Сообщение

user ®

Стаж: 7 лет 7 месяцев

Сообщений: 20008

Пост Пост: #1 от 19-Окт-2013 21:45

[Цитировать]

Человек из стали / Man of Steel
-
Страна: США, Канада, Великобритания
Жанр: фантастика, фэнтези, боевик, приключения
слова
Год выпуска: 2013
Продолжительность: 02:23:03-Перевод: Профессиональный (дублированный) /Лицензия Blu-Ray CEE/
Оригинальная дорожка: Английский
Cубтитры: Русские, Английские-Режиссер: Зак Снайдер / Zack Snyder-В ролях: Генри Кавилл / Henry Cavill (Clark Kent /Kal-El), Эми Адамс / Amy Adams (Lois Lane), Майкл Шеннон / Michael Shannon (General Zod), Рассел Кроу / Russell Crowe (Jor-El), /7938/]Дайан Лэйн / Diane Lane (Martha Kent), Кевин Костнер / Kevin Costner (Jonathan Kent), Антье Трауэ / Antje Traue (Faora-Ul), Лоренс Фишбёрн / Laurence Fishburne (Perry White), Кристофер Мелони / Christopher Meloni (Colonel Nathan Hardy), /4050/]Гарри Дж. Ленникс / Harry J. Lennix (General Swanwick), Ричард Шифф / Richard Schiff (Dr. Emil Hamilton), Айелет Зурер / Ayelet Zurer (Lara Lor-Van)-Описание:
Кларк Кент/Кал-Эл - молодой человек, который чувствует себя чужаком из-за своей невероятной силы. Много лет назад он был отправлен на Землю с развитой планеты Криптон, и теперь задается вопросом: зачем?
Воспитанный приемными родителями Мартой и Джонатаном Кентами, Кларк знает: обладать сверхспособностями - значит принимать сложные решения. Но когда человечество более всего нуждается в стабильности, оно подвергается нападению. Сможет ли герой восстановить мир, или воспользуется своей силой для того, чтобы окончательно его разрушить?
- -Качество видео: BDRip /исходник: Man.Of.Steel.2013.COMPLETE.BluRay-TRUEDEF/
Формат видео: AVI-Видео: XviD / 720 x 304 / 2.37:1 / 2003 kbps / 23,976 fps
Аудио #1: AC3 Dolby Digital / 48 KHz / 448 kbps / 3/2 (L,C,R,l,r) + LFE ch /RUS/
Аудио #2: AC3 Dolby Digital / 48 KHz / 448 kbps / 3/2 (L,C,R,l,r) + LFE ch /ENG/-СЭМПЛ-Релиз: -

MediaInfo

General
Complete name : I:\Chelovek.Iz.Stali.2013.DUAL.BDRip.XviD.AC3.-HQ-ViDEO\Chelovek.Iz.Stali.2013.DUAL.BDRip.XviD.AC3.-HQ-ViDEO.avi
Format : AVI
Format/Info : Audio Video Interleave
Format profile : OpenDML
File size : 2.91 GiB
Duration : 2h 23mn
Overall bit rate : 2 915 Kbps
Movie name : Man of Steel (2013)
Director : Vaippp
Genre : Action/Adventure/Fantasy
Writing application : VirtualDubModRus 1.5.10.2 (build 2542/release)
Original source form/Name : Movie
Copyright : HQ-ViDEO
Comment : BDRip
Video
ID : 0
Format : MPEG-4 Visual
Format profile : Advanced Simple@L5
Format settings, BVOP : 1
Format settings, QPel : No
Format settings, GMC : No warppoints
Format settings, Matrix : Custom
Codec ID : XVID
Codec ID/Hint : XviD
Duration : 2h 23mn
Bit rate : 2 003 Kbps
Width : 720 pixels
Height : 304 pixels
Display aspect ratio : 2.35:1
Frame rate : 23.976 fps
Color space : YUV
Chroma subsampling : 4:2:0
Bit depth : 8 bits
Scan type : Progressive
Compression mode : Lossy
Bits/(Pixel*Frame) : 0.382
Stream size : 2.00 GiB (69%)
Writing library : XviD 73
Audio #1
ID : 1
Format : AC-3
Format/Info : Audio Coding 3
Mode extension : CM (complete main)
Format settings, Endianness : Big
Codec ID : 2000
Duration : 2h 23mn
Bit rate mode : Constant
Bit rate : 448 Kbps
Channel(s) : 6 channels
Channel positions : Front: L C R, Side: L R, LFE
Sampling rate : 48.0 KHz
Bit depth : 16 bits
Compression mode : Lossy
Stream size : 458 MiB (15%)
Alignment : Split accross interleaves
Interleave, duration : 42 ms (1.00 video frame)
Interleave, preload duration : 500 ms
Audio #2
ID : 2
Format : AC-3
Format/Info : Audio Coding 3
Mode extension : CM (complete main)
Format settings, Endianness : Big
Codec ID : 2000
Duration : 2h 23mn
Bit rate mode : Constant
Bit rate : 448 Kbps
Channel(s) : 6 channels
Channel positions : Front: L C R, Side: L R, LFE
Sampling rate : 48.0 KHz
Bit depth : 16 bits
Compression mode : Lossy
Stream size : 458 MiB (15%)
Alignment : Split accross interleaves
Interleave, duration : 42 ms (1.00 video frame)
Interleave, preload duration : 500 ms

Скриншоты



Скачать

Скачать торрент!

Как скачивать? · Что такое торрент? · Рейтинг и ограничения

Сайт не распространяет и не хранит электронные версии произведений, а лишь предоставляет доступ к создаваемому пользователями каталогу ссылок на торрент-файлы, которые содержат только списки хеш-сумм

[Профиль] [ЛС]
Показать сообщения:    
Ответить на тему

Текущее время: Сегодня 06:01

Часовой пояс: GMT + 4



Вы не можете начинать темы
Вы не можете отвечать на сообщения
Вы не можете редактировать свои сообщения
Вы не можете удалять свои сообщения
Вы не можете голосовать в опросах
Вы не можете прикреплять файлы к сообщениям
Вы не можете скачивать файлы