Пропавший медальон / The Lost Medallion: The Adventures of Billy Stone (Билл Мьюир / Bill Muir) [2013, Таиланд, приключения, семейный, BDRemux 1080p] VO (RiD) + 3xSub (Rus, Eng) + Original Eng

Ответить на тему
 
Автор Сообщение

user ®

Стаж: 7 лет 7 месяцев

Сообщений: 20008

Пост Пост: #1 от 19-Окт-2013 18:35

[Цитировать]

Пропавший медальон / The Lost Medallion: The Adventures of Billy Stone
Страна: Таиланд
Жанр: приключения, семейный
Год выпуска: 2013
Продолжительность: 01:38:10
Перевод: Одноголосый закадровый RiD
Cубтитры: русские Алексей Крылов aka rrrtttsss aka prostotak, английские [Full, SDH/COLOR]
Оригинальная аудиодорожка: английский
-
Режиссер: Билл Мьюир / Bill Muir
В ролях: Билли Ангер, Сэмми Ханратти, Джеймс Хонг, Джэнсен Панеттьер, Уильям Коркери, Алекс Кендрик, Марк Дакаскос, Лиза ЛоЦицеро, Хэл Рубник, Сидни С. Лиуфау
-
Описание: Археолог Майкл Стоун искал утерянный медальон всю свою жизнь. Теперь уже его сын Билли продолжает эти поиски. Однажды Билли улыбнулась удача, и заветный медальон оказывается у него в руках. Вместе со своим лучшим другом Олли, поддавшись спонтанному желанию, они неожиданно попадают назад на 200 лет…

Тип релиза: BDRemux 1080p
Контейнер: MKV
Видео: MPEG-2 / NTSC 16:9 / 1920x1080 (2,40:1) / 30063 kbps / 23,976 fps / 0.592 bit/pixel / Main@High
Аудио 1: Russian / AC3 / 48 kHz / 2 Ch / 192 kbps / 16 bit / VO
Аудио 2: English / AC3 / 48 kHz / 5 Ch / 384 kbps / 16 bit / Original
Формат субтитров: softsub (SRT)
Навигация по главам: есть

Доп.инфо

На диске в оригинальном звуке отсутствует LFE-канал, посему пересобрал в 5 Ch.

MediaInfo

Общее
Уникальный идентификатор : 254533847523761178553421683162183932576 (0xBF7D6F95DF27B7D4BBAE4ED0C5009AA0)
Полное имя : W:\BDRemux 1080p\The Lost Medallion.The Adventures of Billy Stone.2013.BDRemux.1080p.mkv
Формат : Matroska
Версия формата : Version 4 / Version 2
Размер файла : 21,0 Гбайт
Продолжительность : 1 ч. 38 м.
Общий поток : 30,6 Мбит/сек
Дата кодирования : UTC 2013-10-19 07:13:37
Программа кодирования : mkvmerge v6.4.1 ('Omega Point') built on Sep 16 2013 22:05:10
Библиотека кодирования : libebml v1.3.0 + libmatroska v1.4.1
Видео
Идентификатор : 1
Формат : MPEG Video
Версия формата : Version 2
Профиль формата : Main@High
Параметр BVOP формата : Нет
Параметр матрицы формата : По умолчанию
Идентификатор кодека : V_MPEG2
Идентификатор кодека/Информация : MPEG 1 or 2 Video
Продолжительность : 1 ч. 38 м.
Битрейт : 29,5 Мбит/сек
Максимальный битрейт : 36,0 Мбит/сек
Ширина : 1920 пикселей
Высота : 1080 пикселей
Соотношение сторон : 16:9
Режим частоты кадров : Постоянный
Частота кадров : 23,976 кадра/сек
Стандарт вещания : NTSC
Цветовое пространство : YUV
Субдискретизация насыщенности : 4:2:0
Битовая глубина : 8 бит
Метод сжатия : С потерями
Бит/(Пиксели*Кадры) : 0.592
Временной код первого кадра : 00:00:00:00
Оригинал временного кода : Group of pictures header
Размер потока : 20,2 Гбайт (96%)
Язык : English
Default : Да
Forced : Нет
Основные цвета : BT.709
Характеристики трансфера : BT.709
Коэффициенты матрицы : BT.709
Аудио #1
Идентификатор : 2
Формат : AC-3
Формат/Информация : Audio Coding 3
Расширение режима : CM (complete main)
Параметр Endianness формата : Big
Идентификатор кодека : A_AC3
Продолжительность : 1 ч. 38 м.
Вид битрейта : Постоянный
Битрейт : 192 Кбит/сек
Каналы : 2 канала
Расположение каналов : Front: L R
Частота : 48,0 КГц
Битовая глубина : 16 бит
Метод сжатия : С потерями
Размер потока : 135 Мбайт (1%)
Заголовок : VO / RiD
Язык : Russian
Default : Да
Forced : Нет
Аудио #2
Идентификатор : 3
Формат : AC-3
Формат/Информация : Audio Coding 3
Расширение режима : CM (complete main)
Параметр Endianness формата : Big
Идентификатор кодека : A_AC3
Продолжительность : 1 ч. 38 м.
Вид битрейта : Постоянный
Битрейт : 384 Кбит/сек
Каналы : 5 каналов
Расположение каналов : Front: L C R, Side: L R
Частота : 48,0 КГц
Битовая глубина : 16 бит
Метод сжатия : С потерями
Размер потока : 270 Мбайт (1%)
Заголовок : Original
Язык : English
Default : Нет
Forced : Нет
Текст #1
Идентификатор : 4
Формат : UTF-8
Идентификатор кодека : S_TEXT/UTF8
Идентификатор кодека/Информация : UTF-8 Plain Text
Заголовок : Алексей Крылов aka rrrtttsss aka prostotak
Язык : Russian
Default : Нет
Forced : Нет
Текст #2
Идентификатор : 5
Формат : UTF-8
Идентификатор кодека : S_TEXT/UTF8
Идентификатор кодека/Информация : UTF-8 Plain Text
Заголовок : Original
Язык : English
Default : Нет
Forced : Нет
Текст #3
Идентификатор : 6
Формат : UTF-8
Идентификатор кодека : S_TEXT/UTF8
Идентификатор кодека/Информация : UTF-8 Plain Text
Заголовок : Original [SDH/COLOR]
Язык : English
Default : Нет
Forced : Нет
Меню
00:00:00.000 : en:
00:09:59.974 : en:
00:19:59.990 : en:
00:29:59.964 : en:
00:39:59.980 : en:
00:49:59.955 : en:
00:59:59.971 : en:
01:09:59.945 : en:
01:19:59.920 : en:
01:29:59.936 : en:
01:37:59.874 : en:

Скриншоты

Скачать

Скачать торрент!

Как скачивать? · Что такое торрент? · Рейтинг и ограничения

Сайт не распространяет и не хранит электронные версии произведений, а лишь предоставляет доступ к создаваемому пользователями каталогу ссылок на торрент-файлы, которые содержат только списки хеш-сумм

[Профиль] [ЛС]
Показать сообщения:    
Ответить на тему

Текущее время: Сегодня 06:25

Часовой пояс: GMT + 4



Вы не можете начинать темы
Вы не можете отвечать на сообщения
Вы не можете редактировать свои сообщения
Вы не можете удалять свои сообщения
Вы не можете голосовать в опросах
Вы не можете прикреплять файлы к сообщениям
Вы не можете скачивать файлы