Прямо из Бруклина / Выбраться из Бруклина / Straight Out of Brooklyn (Мэтти Рич / Matty Rich) [1991, США, драма, криминал, HDTV 1080i] DVO (НТВ+) + Original Eng

Ответить на тему
 
Автор Сообщение

user ®

Стаж: 7 лет 7 месяцев

Сообщений: 20008

Пост Пост: #1 от 19-Окт-2013 18:35

[Цитировать]

Прямо из Бруклина / Выбраться из Бруклина / Straight Out of Brooklyn
Страна: США
Студия: American Playhouse, Blacks in Progress
Жанр: драма, криминал
Год выпуска: 1991
Продолжительность: 01:19:10
Перевод: Профессиональный (двухголосый закадровый) НТВ+
Cубтитры: нет
Оригинальная аудиодорожка: английский
Режиссер: Мэтти Рич / Matty Rich
В ролях: Джордж Т. Одом, Энн Д. Сандерс, Ларри Джиллиард мл., Barbara Sanon, Reana E. Drummond, Мэтти Рич, Марк Мэлоун, Али А. Абдул, Джозеф А. Томас, Джеймс МакФедден
Описание: Выбраться из Бруклина это неприукрашенная история Денниса, «чёрного» подростка, живущего в «социальном» жилье с сестрой, матерью и злобным отцом-алкоголиком. Отчаявшись от такой беспросветной жизни, Деннис вместе с приятелями задумал ограбить местного торговца наркотиками.

Тип релиза: HDTV 1080i
Контейнер: MKV
Видео: AVC 1920x1080 (16:9) 25.0fps Bit rate 7024Kbps
Аудио 1: MP2 48.0KHz 2ch 192 Kbps rus
Аудио 2: AC3 48.0KHz 2ch 192 Kbps eng

MediaInfo

Общее
Уникальный идентификатор : 181421879084515051692967064163676416459 (0x887C953C2F227AEAAF669AE2462169CB)
Полное имя : E:\torrent\Pryamo iz Bruklina_HDTV 1080i.mkv
Формат : Matroska
Версия формата : Version 4 / Version 2
Размер файла : 4,18 Гбайт
Продолжительность : 1 ч. 19 м.
Общий поток : 7559 Кбит/сек
Дата кодирования : UTC 2013-10-19 09:42:38
Программа кодирования : mkvmerge v6.4.1 ('Omega Point') built on Sep 16 2013 22:05:10
Библиотека кодирования : libebml v1.3.0 + libmatroska v1.4.1
Видео
Идентификатор : 1
Формат : AVC
Формат/Информация : Advanced Video Codec
Профиль формата : High@L4.0
Параметр CABAC формата : Да
Параметр ReFrames формата : 3 кадра
Параметр GOP формата : M=4, N=32
Идентификатор кодека : V_MPEG4/ISO/AVC
Продолжительность : 1 ч. 19 м.
Битрейт : 7024 Кбит/сек
Ширина : 1920 пикселей
Высота : 1080 пикселей
Соотношение сторон : 16:9
Режим частоты кадров : Постоянный
Частота кадров : 25,000 кадров/сек
Стандарт вещания : Component
Цветовое пространство : YUV
Субдискретизация насыщенности : 4:2:0
Битовая глубина : 8 бит
Тип развёртки : Чересстрочная
Порядок развёртки : Верхнее поле первое
Бит/(Пиксели*Кадры) : 0.136
Размер потока : 3,89 Гбайт (93%)
Заголовок : Pryamo iz Bruklina_HDTV1080i
Default : Да
Forced : Нет
Основные цвета : BT.709
Характеристики трансфера : BT.709
Коэффициенты матрицы : BT.709
Аудио #1
Идентификатор : 2
Формат : MPEG Audio
Версия формата : Version 1
Профиль формата : Layer 2
Идентификатор кодека : A_MPEG/L2
Идентификатор кодека/Подсказка : MP2
Продолжительность : 1 ч. 19 м.
Вид битрейта : Постоянный
Битрейт : 192 Кбит/сек
Каналы : 2 канала
Частота : 48,0 КГц
Метод сжатия : С потерями
Размер потока : 109 Мбайт (3%)
Заголовок : Pryamo iz Bruklina_HDTV1080i_MP2_2ch_DVO_NTV+
Язык : Russian
Default : Да
Forced : Нет
Аудио #2
Идентификатор : 3
Формат : AC-3
Формат/Информация : Audio Coding 3
Расширение режима : CM (complete main)
Параметр Endianness формата : Big
Идентификатор кодека : A_AC3
Продолжительность : 1 ч. 19 м.
Вид битрейта : Постоянный
Битрейт : 192 Кбит/сек
Каналы : 2 канала
Расположение каналов : Front: L R
Частота : 48,0 КГц
Битовая глубина : 16 бит
Метод сжатия : С потерями
Размер потока : 109 Мбайт (3%)
Заголовок : Pryamo iz Bruklina_HDTV1080i_AC3_2ch_original eng
Язык : English
Default : Нет
Forced : Нет

Скриншот с названием фильма

Скриншоты

Скачать

Скачать торрент!

Как скачивать? · Что такое торрент? · Рейтинг и ограничения

Сайт не распространяет и не хранит электронные версии произведений, а лишь предоставляет доступ к создаваемому пользователями каталогу ссылок на торрент-файлы, которые содержат только списки хеш-сумм

[Профиль] [ЛС]
Показать сообщения:    
Ответить на тему

Текущее время: Сегодня 04:03

Часовой пояс: GMT + 4



Вы не можете начинать темы
Вы не можете отвечать на сообщения
Вы не можете редактировать свои сообщения
Вы не можете удалять свои сообщения
Вы не можете голосовать в опросах
Вы не можете прикреплять файлы к сообщениям
Вы не можете скачивать файлы