Рождество в окопах (Яков Протазанов) [1914, лирический эпизод]

Ответить на тему
 
Автор Сообщение

user ®

Стаж: 7 лет 7 месяцев

Сообщений: 20008

Пост Пост: #1 от 19-Окт-2013 03:10

[Цитировать]

Рождество в окопах
Жанр: лирический эпизод
Год выпуска: 1914
Продолжительность: 0:07:53
Режиссёр: Яков Протазанов
В ролях: неизвестно
Описание: Из каталога сохранившихся фильмов:
Фильм поставлен специально для солдат русской армии, находившихся на передовых позициях.
После названия фильма идут следующие сцены:
1. Крупный план украшения ёлки.
2. Крупный план газеты, где говорится о приближении Рождества и призыв ко всей Руси помочь солдатам, находящимся на фронте, радостно отпраздновать Рождество. Написано, что уже отправлено на фронт 88 вагонов подарков, председатель по сбору подарков А. Бахрушин призывает собрать ещё и таким образом выполнить свой христианский долг.
Далее идут частные сцены в тылу и на передовых позициях.
3. Двое интеллигентных мужчин собирают подарки и укладывают их в коробку.
4. Простая женщина шьёт какие-то вещи для солдат. Заходит её муж, и они укладывают вещи в большой мешок.
5. Заснеженный лес. На передовых позициях солдаты и офицер готовятся к празднованиям Рождества.
Титр: "Они все не забыты в тылу и изо всех уголков России идут к ним поздравления и подарки".
6. Телеги с подарками прибывают в армейскую часть, расположенную в лесу. Солдаты обнимаются с приехавшими гостями.
7. Бывший актёр, а теперь солдат, вспоминает о том, как он оставил сцену и ушёл на фронт.
8. Офицер с ревностью вспоминает свою красивую жену.
9. Ефрейтору приходит на память его маленький сын и жена.
10. В лесу начинается праздник в честь Рождества Христова. Солдаты с радостью пьют чай и вино. Затем они поздравляют друг друга и пляшут...
Режиссёр, оператор и актёры в этой копии не указаны.
Фильм сохранился не полностью с подлинными титрами.
Фильм хранится в РГАКФД.
Доп. информация: История реконструкции фильма:
http://kinozapiski.ru/data/home/articles/attache/233.pdf
Качество видео: неизвестно
Формат видео: AVI
Видео: 320x240 (1.33:1), 25 fps, Microsoft MPEG-4 Video Codec V2 ~1209 kbps avg, 0.63 bit/pixel
Аудио: 48 kHz, MPEG Layer 3, 2 ch, ~64.00 kbps avg

MediaInfo

General
Complete name : C:\videooutput\Рождество в окопах.avi
Format : AVI
Format/Info : Audio Video Interleave
File size : 71.4 MiB
Duration : 7mn 53s
Overall bit rate : 1 265 Kbps
Writing application : Lavf52.31.0
Video
ID : 0
Format : MPEG-4 Visual
Codec ID : MP42
Codec ID/Info : Microsoft MPEG-4 v2 (pre-standard)
Codec ID/Hint : Microsoft
Duration : 7mn 53s
Bit rate : 1 210 Kbps
Width : 320 pixels
Height : 240 pixels
Display aspect ratio : 4:3
Frame rate : 25.000 fps
Compression mode : Lossy
Bits/(Pixel*Frame) : 0.630
Stream size : 68.3 MiB (96%)
Audio
ID : 1
Format : MPEG Audio
Format version : Version 1
Format profile : Layer 3
Mode : Joint stereo
Mode extension : MS Stereo
Codec ID : 55
Codec ID/Hint : MP3
Duration : 5mn 29s
Bit rate mode : Constant
Bit rate : 64.0 Kbps
Channel(s) : 2 channels
Sampling rate : 48.0 KHz
Compression mode : Lossy
Stream size : 2.51 MiB (4%)
Alignment : Aligned on interleaves
Interleave, duration : 35 ms (0.86 video frame)

Скриншоты

Скачать

Скачать торрент!

Как скачивать? · Что такое торрент? · Рейтинг и ограничения

Сайт не распространяет и не хранит электронные версии произведений, а лишь предоставляет доступ к создаваемому пользователями каталогу ссылок на торрент-файлы, которые содержат только списки хеш-сумм

[Профиль] [ЛС]
Показать сообщения:    
Ответить на тему

Текущее время: Сегодня 22:35

Часовой пояс: GMT + 4



Вы не можете начинать темы
Вы не можете отвечать на сообщения
Вы не можете редактировать свои сообщения
Вы не можете удалять свои сообщения
Вы не можете голосовать в опросах
Вы не можете прикреплять файлы к сообщениям
Вы не можете скачивать файлы