Закованная фильмой (Никандр Туркин) [1918, кинолегенда]

Ответить на тему
 
Автор Сообщение

user ®

Стаж: 7 лет 7 месяцев

Сообщений: 20008

Пост Пост: #1 от 19-Окт-2013 00:00

[Цитировать]

Закованная фильмой / фрагмент
Жанр: кинолегенда
Год выпуска: 1918
Продолжительность: 0:01:32
Режиссёр: Никандр Туркин
В ролях: Владимир Маяковский (художник), Лиля Брик (балерина).
Описание: В сохранившемся фрагменте художник вешает плакат с балериной на стену. Балерина оживает и сходит с плаката.
Доп. информация: Очень интересный фильм с очень экзотическим и необычным сюжетом о "волшебной киностране". К сожалению, сохранился лишь этот фрагмент, содержащий "забракованные куски, которые архивисты нашли в 1970-е годы".
Качество видео: неизвестно
Формат видео: AVI
Видео: 320x240 (1.33:1), 25 fps, Microsoft MPEG-4 Video Codec V2 ~2267 kbps avg, 1.18 bit/pixel
Аудио: 48 kHz, MPEG Layer 3, 2 ch, ~64.00 kbps avg

MediaInfo

General
Complete name : C:\videooutput\Закованная фильмой.avi
Format : AVI
Format/Info : Audio Video Interleave
File size : 25.2 MiB
Duration : 1mn 32s
Overall bit rate : 2 279 Kbps
Writing application : Lavf52.31.0
Video
ID : 0
Format : MPEG-4 Visual
Codec ID : MP42
Codec ID/Info : Microsoft MPEG-4 v2 (pre-standard)
Codec ID/Hint : Microsoft
Duration : 1mn 32s
Bit rate : 2 266 Kbps
Width : 320 pixels
Height : 240 pixels
Display aspect ratio : 4:3
Frame rate : 25.000 fps
Compression mode : Lossy
Bits/(Pixel*Frame) : 1.180
Stream size : 25.1 MiB (99%)
Audio
ID : 1
Format : MPEG Audio
Format version : Version 1
Format profile : Layer 3
Mode : Joint stereo
Mode extension : MS Stereo
Codec ID : 55
Codec ID/Hint : MP3
Duration : 9s 192ms
Bit rate mode : Constant
Bit rate : 64.0 Kbps
Channel(s) : 2 channels
Sampling rate : 48.0 KHz
Compression mode : Lossy
Stream size : 71.8 KiB (0%)
Alignment : Aligned on interleaves
Interleave, duration : 242 ms (6.06 video frames)

Скриншоты

Скачать

Скачать торрент!

Как скачивать? · Что такое торрент? · Рейтинг и ограничения

Сайт не распространяет и не хранит электронные версии произведений, а лишь предоставляет доступ к создаваемому пользователями каталогу ссылок на торрент-файлы, которые содержат только списки хеш-сумм

[Профиль] [ЛС]
Показать сообщения:    
Ответить на тему

Текущее время: Сегодня 12:04

Часовой пояс: GMT + 4



Вы не можете начинать темы
Вы не можете отвечать на сообщения
Вы не можете редактировать свои сообщения
Вы не можете удалять свои сообщения
Вы не можете голосовать в опросах
Вы не можете прикреплять файлы к сообщениям
Вы не можете скачивать файлы