Лиззи / Lizzie (Дэвид Данн мл. / David Dunn Jr.) [2013, США, Триллер, ужасы, WEB-DLRip] DVO (DeadSno & den904)

Ответить на тему
 
Автор Сообщение

user ®

Стаж: 7 лет 7 месяцев

Сообщений: 20008

Пост Пост: #1 от 19-Окт-2013 00:00

[Цитировать]

Лиззи / Lizzie
Страна: США
Жанр: Триллер, ужасы
Год выпуска: 2013
Продолжительность: 01:26:11
Перевод: Любительский (двухголосый закадровый) [DeadSno & den904]
Cубтитры: нет
Оригинальная аудиодорожка: нет
Режиссер: Дэвид Данн мл. / David Dunn Jr.
В ролях: Аманда Бэйкер, Лейф Холт, Корбин Бернсен, Кэйтлин Кармайкл, Синди Баэр, Шона Уолрод, Гэри Бьюзи, Джерри Бедноб, Эрик Фишер
Описание: Молодая девушка возвращается в семейный дом, который покинула давным-давно. Она совсем не помнит своего прошлого, как и того, что ее семейный дом - это место, где 4 августа 1892 года были убиты родители девочки Лиззи Борден. А когда умерла и она сама, ее призрак вернулся, чтобы отомстить за свое изгнание...


Сэмпл: http://multi-up.com/914409
Качество видео: WEB-DLRip (Исх. WEB-DLRip 720p)
Формат видео: AVI
Видео: 704x352 (2.00:1), 23.976 fps, XviD build 50 ~1072 kbps avg, 0.18 bit/pixel
Аудио: 48 kHz, MPEG Layer 3, 2 ch, ~128.00 kbps avg

MediaInfo

Общее
Полное имя : S:\Фильмы\Лиззи. 2013. WEB-DLRip (AleksSin).avi
Формат : AVI
Формат/Информация : Audio Video Interleave
Размер файла : 745 Мбайт
Продолжительность : 1 ч. 26 м.
Общий поток : 1209 Кбит/сек
Программа кодирования : VirtualDubMod 1.5.10.3 | www.virtualdub-fr.org || (build 2550/release)
Библиотека кодирования : VirtualDubMod build 2550/release
Видео
Идентификатор : 0
Формат : MPEG-4 Visual
Профиль формата : Advanced Simple@L5
Параметр BVOP формата : 2
Параметр QPel формата : Нет
Параметр GMC формата : Без точки перехода
Параметр матрицы формата : Default (H.263)
Идентификатор кодека : XVID
Идентификатор кодека/Подсказка : XviD
Продолжительность : 1 ч. 26 м.
Битрейт : 1072 Кбит/сек
Ширина : 704 пикс.
Высота : 352 пикс.
Соотношение сторон : 2,000
Частота кадров : 23,976 кадр/сек
Цветовое пространство : YUV
Подвыборка цветности : 4:2:0
Битовая глубина : 8 бит
Тип развёртки : Прогрессивная
Метод сжатия : С потерями
Бит/(Пиксели*Кадры) : 0.180
Размер потока : 661 Мбайт (89%)
Библиотека кодирования : XviD 1.2.1 (UTC 2008-12-04)
Аудио
Идентификатор : 1
Формат : MPEG Audio
Версия формата : Version 1
Профиль формата : Layer 3
Идентификатор кодека : 55
Идентификатор кодека/Подсказка : MP3
Продолжительность : 1 ч. 26 м.
Вид битрейта : Постоянный
Битрейт : 128 Кбит/сек
Каналы : 2 канала
Частота : 48,0 КГц
Метод сжатия : С потерями
Размер потока : 78,9 Мбайт (11%)
Выравнивание : Соединение по промежуткам
Продолжительность промежутка : 42 мс. (1,00 видеокадр)
Время предзагрузки промежутка : 504 ms
Библиотека кодирования : LAME3.99r
Настройки программы : -m s -V 4 -q 2 -lowpass 17 -b 128

Скриншот c названием фильма

Скриншоты

Скачать

Скачать торрент!

Как скачивать? · Что такое торрент? · Рейтинг и ограничения

Сайт не распространяет и не хранит электронные версии произведений, а лишь предоставляет доступ к создаваемому пользователями каталогу ссылок на торрент-файлы, которые содержат только списки хеш-сумм

[Профиль] [ЛС]
Показать сообщения:    
Ответить на тему

Текущее время: Сегодня 02:05

Часовой пояс: GMT + 4



Вы не можете начинать темы
Вы не можете отвечать на сообщения
Вы не можете редактировать свои сообщения
Вы не можете удалять свои сообщения
Вы не можете голосовать в опросах
Вы не можете прикреплять файлы к сообщениям
Вы не можете скачивать файлы