Сталинград / Stalingrad (Йозеф Вильсмайер / Joseph Vilsmaier) [1993, Германия, драма, военный, BDRip 720p] DVO + AVO (Живов) + Original ger + Sub rus, eng

Ответить на тему
 
Автор Сообщение

user ®

Стаж: 7 лет 7 месяцев

Сообщений: 20008

Пост Пост: #1 от 18-Окт-2013 20:50

[Цитировать]

Сталинград / Stalingrad
Страна: Германия
Жанр: драма, военный
Год выпуска: 1993
Продолжительность: 02:18:03
Перевод#1: Профессиональный (двухголосый закадровый) | [url=http://***/forum/viewtopic.php?t=4266670]ЕА Синема[/url], со вставками Живова
Перевод#2: Авторский (одноголосый закадровый), Ю. Живов
Cубтитры: русские, английские
Оригинальная аудиодорожка: немецкий
Режиссер: Йозеф Вильсмайер / Joseph Vilsmaier
В ролях: Доминик Хорвиц, Йохен Никель, Себастьян Рудольф, Дана Ваврова, Мартин Бенрат, Сильвестр Грот, Карел Гержманек, Хайнц Эмигхольц, Фердинанд Шустер
Описание: Зима 1942 года. Шестая армия генерала Паулюса сражается в разрушенном до основания Сталинграде. Элитный штурмовой взвод вермахта, в первой же битве потерявший больше половины личного состава, ведет отчаянную борьбу за выживание
Свист пуль и рев "Катюш", голод и холод доводят их до грани безумия. Уже почти ничто не удерживает солдат на тонкой линии между жизнью и смертью. После всего, что они видели, после крушения всех идеалов, приказ фюрера "стоять до конца" приобретает для них совсем другое, гораздо более страшное значение…

Тип релиза: BDRip 720p (от CtrlHD) | sample
Контейнер: MKV
Видео кодек: x264
Видео: AVC 1280x694 (1.85:1), 23.976 fps, ~8330 Kbps, 0.39 bit/pixel
Аудио #1: Russian AC3 2ch 48kHz 192Kbps | DVO ЕА Синема
Аудио #2: Russian AC3 2ch 48kHz 192Kbps | AVO Живов
Аудио #3: German DTS 6ch 48kHz 1510Kbps | Original*
Формат субтитров: softsub (SRT)
Главы: есть

MediaInfo | x264

x264

x264 [info]: frame I:1222 Avg QP:15.59 size:123667
x264 [info]: frame P:40218 Avg QP:16.55 size: 70465
x264 [info]: frame B:157154 Avg QP:18.03 size: 35896
General
Complete name : E:\...\Stalingrad.1993.720p.BluRay.x264.2xRus.Ger-CtrlHD.mkv
Format : Matroska
Format version : Version 4 / Version 2
File size : 9.86 GiB
Duration : 2h 18mn
Overall bit rate : 10.2 Mbps
Movie name : Stalingrad.1993.720p.BluRay.x264.2xRus.Ger-CtrlHD
Encoded date : UTC 2013-10-07 03:33:29
Writing application : mkvmerge v6.2.0 ('Promised Land') built on Apr 28 2013 12:22:01
Writing library : libebml v1.3.0 + libmatroska v1.4.0
Video
ID : 1
Format : AVC
Format/Info : Advanced Video Codec
Format profile : High@L4.1
Format settings, CABAC : Yes
Format settings, ReFrames : 9 frames
Codec ID : V_MPEG4/ISO/AVC
Bit rate : 8 130 Kbps
Width : 1 280 pixels
Height : 694 pixels
Display aspect ratio : 1.85:1
Frame rate mode : Variable
Original frame rate : 23.976 fps
Color space : YUV
Chroma subsampling : 4:2:0
Bit depth : 8 bits
Scan type : Progressive
Title : CtrlHD
Writing library : x264 core 128 r2216kMod 198a7ea
Encoding settings : cabac=1 / ref=9 / deblock=1:-3:-3 / analyse=0x3:0x113 / me=umh / subme=9 / psy=1 / fade_compensate=0.00 / psy_rd=1.10:0.00 / mixed_ref=1 / me_range=16 / chroma_me=1 / trellis=2 / 8x8dct=1 / cqm=0 / deadzone=21,11 / fast_pskip=0 / chroma_qp_offset=-2 / threads=6 / lookahead_threads=1 / sliced_threads=0 / nr=0 / decimate=0 / interlaced=0 / bluray_compat=0 / constrained_intra=0 / bframes=8 / b_pyramid=2 / b_adapt=2 / b_bias=0 / direct=3 / weightb=1 / open_gop=0 / weightp=2 / keyint=250 / keyint_min=23 / scenecut=40 / intra_refresh=0 / rc=crf / mbtree=0 / crf=18.0000 / qcomp=0.80 / qpmin=0 / qpmax=69 / qpstep=4 / ip_ratio=1.30 / pb_ratio=1.20 / aq=1:0.85
Language : English
Default : No
Forced : No
Audio #1
ID : 2
Format : AC-3
Format/Info : Audio Coding 3
Mode extension : CM (complete main)
Format settings, Endianness : Big
Codec ID : A_AC3
Duration : 2h 18mn
Bit rate mode : Constant
Bit rate : 192 Kbps
Channel(s) : 2 channels
Channel positions : Front: L R
Sampling rate : 48.0 KHz
Bit depth : 16 bits
Compression mode : Lossy
Stream size : 190 MiB (2%)
Title : DVO EA Cinema
Language : Russian
Default : Yes
Forced : No
Audio #2
ID : 3
Format : AC-3
Format/Info : Audio Coding 3
Mode extension : CM (complete main)
Format settings, Endianness : Big
Codec ID : A_AC3
Duration : 2h 18mn
Bit rate mode : Constant
Bit rate : 192 Kbps
Channel(s) : 2 channels
Channel positions : Front: L R
Sampling rate : 48.0 KHz
Bit depth : 16 bits
Compression mode : Lossy
Stream size : 190 MiB (2%)
Title : AVO Zhivov
Language : Russian
Default : No
Forced : No
Audio #3
ID : 4
Format : DTS
Format/Info : Digital Theater Systems
Codec ID : A_DTS
Duration : 2h 18mn
Bit rate mode : Constant
Bit rate : 1 510 Kbps
Channel(s) : 6 channels
Channel positions : Front: L C R, Side: L R, LFE
Sampling rate : 48.0 KHz
Bit depth : 24 bits
Compression mode : Lossy
Stream size : 1.46 GiB (15%)
Title : Original
Language : German
Default : No
Forced : No
Text #1
ID : 5
Format : UTF-8
Codec ID : S_TEXT/UTF8
Codec ID/Info : UTF-8 Plain Text
Language : Russian
Default : No
Forced : No
Text #2
ID : 6
Format : UTF-8
Codec ID : S_TEXT/UTF8
Codec ID/Info : UTF-8 Plain Text
Language : English
Default : No
Forced : No
Menu
00:00:00.000 : en:Chapter 01
00:02:18.763 : en:Chapter 02
00:09:50.798 : en:Chapter 03
00:18:11.507 : en:Chapter 04
00:32:51.177 : en:Chapter 05
00:42:56.699 : en:Chapter 06
00:50:45.167 : en:Chapter 07
01:04:41.085 : en:Chapter 08
01:13:37.037 : en:Chapter 09
01:25:08.937 : en:Chapter 10
01:34:12.480 : en:Chapter 11
01:43:09.433 : en:Chapter 12
01:53:16.831 : en:Chapter 13
02:06:15.442 : en:Chapter 14
02:13:46.852 : en:Chapter 15

Скриншоты



Скачать

Скачать торрент!

Как скачивать? · Что такое торрент? · Рейтинг и ограничения

Сайт не распространяет и не хранит электронные версии произведений, а лишь предоставляет доступ к создаваемому пользователями каталогу ссылок на торрент-файлы, которые содержат только списки хеш-сумм

[Профиль] [ЛС]
Показать сообщения:    
Ответить на тему

Текущее время: Сегодня 21:22

Часовой пояс: GMT + 4



Вы не можете начинать темы
Вы не можете отвечать на сообщения
Вы не можете редактировать свои сообщения
Вы не можете удалять свои сообщения
Вы не можете голосовать в опросах
Вы не можете прикреплять файлы к сообщениям
Вы не можете скачивать файлы