Чудо (Александр Прошкин) [2009, Драма, комедия, DVDRip]

Ответить на тему
 
Автор Сообщение

user ®

Стаж: 7 лет 7 месяцев

Сообщений: 20008

Пост Пост: #1 от 18-Окт-2013 09:40

[Цитировать]

Чудо
Жанр: Драма, комедия
Год выпуска: 2009
Продолжительность: 01:50:25
Режиссёр: Александр Прошкин
В ролях: Константин Хабенский, Сергей Маковецкий, Полина Кутепова, Виктор Шамиров, Сергей Новиков, Виталий Кищенко, Анна Уколова, Вячеслав Степанян, Илона Арсентьева
Описание: В основу фильма положены реальные события, произошедшие в Самаре в 1956 году и известные как «Стояние Зои». Во время праздника в Доме культуры девушка, не дождавшись своего суженого, снимает со стены икону Николая Чудотворца и начинает с ней танцевать, но внезапно застывает на месте. Это стояние продолжается много месяцев. Жители провинциального городка напуганы этим необычайным событием, которое обрастает слухами и домыслами. Чтобы попытаться разобраться в ситуации, туда отправляется журналист столичной газеты…
Сэмпл: http://multi-up.com/914229
Качество видео: DVDRip
Формат видео: AVI
Видео: 704x384 (1.80:1), 25 fps, XviD MPEG-4 ~1314 kbps avg, 0.15 bit/pixel
Аудио: 48 kHz, AC3 Dolby Digital, 3/2 (L,C,R,l,r) + LFE ch, ~448.00 kbps avg

MediaInfo

General
Complete name : D:\MOVIE\Chudo.avi
Format : AVI
Format/Info : Audio Video Interleave
File size : 1.37 GiB
Duration : 1h 50mn
Overall bit rate : 1 773 Kbps
Writing application : VirtualDubMod 1.5.10.2 (build 2540/release)
Writing library : VirtualDubMod build 2540/release
Video
ID : 0
Format : MPEG-4 Visual
Format profile : Advanced Simple@L5
Format settings, BVOP : Yes
Format settings, QPel : No
Format settings, GMC : No warppoints
Format settings, Matrix : Default (MPEG)
Codec ID : XVID
Codec ID/Hint : XviD
Duration : 1h 50mn
Bit rate : 1 315 Kbps
Width : 704 pixels
Height : 384 pixels
Display aspect ratio : 1.85:1
Frame rate : 25.000 fps
Color space : YUV
Chroma subsampling : 4:2:0
Bit depth : 8 bits
Scan type : Progressive
Compression mode : Lossy
Bits/(Pixel*Frame) : 0.195
Stream size : 1.01 GiB (74%)
Writing library : XviD 1.1.2 (UTC 2006-11-01)
Audio
ID : 1
Format : AC-3
Format/Info : Audio Coding 3
Mode extension : CM (complete main)
Format settings, Endianness : Big
Codec ID : 2000
Duration : 1h 50mn
Bit rate mode : Constant
Bit rate : 448 Kbps
Channel(s) : 6 channels
Channel positions : Front: L C R, Side: L R, LFE
Sampling rate : 48.0 KHz
Bit depth : 16 bits
Compression mode : Lossy
Stream size : 354 MiB (25%)
Alignment : Split accross interleaves
Interleave, duration : 40 ms (1.00 video frame)
Interleave, preload duration : 500 ms

Скриншот c названием фильма

Скриншоты



Скачать

Скачать торрент!

Как скачивать? · Что такое торрент? · Рейтинг и ограничения

Сайт не распространяет и не хранит электронные версии произведений, а лишь предоставляет доступ к создаваемому пользователями каталогу ссылок на торрент-файлы, которые содержат только списки хеш-сумм

[Профиль] [ЛС]
Показать сообщения:    
Ответить на тему

Текущее время: Сегодня 14:46

Часовой пояс: GMT + 4



Вы не можете начинать темы
Вы не можете отвечать на сообщения
Вы не можете редактировать свои сообщения
Вы не можете удалять свои сообщения
Вы не можете голосовать в опросах
Вы не можете прикреплять файлы к сообщениям
Вы не можете скачивать файлы