Невозмутимый / Холодный как камень / Без эмоций / Stone Cold (Крэйг Р. Бэксли / Craig R. Baxley) [1991, США, боевик, драма криминал, HDTVRip 720p] DVO (НТВ+) + 3 AVO (А. Михалёв, В. Горчаков, А. Гаврилов) + Original Eng

Ответить на тему
 
Автор Сообщение

user ®

Стаж: 7 лет 7 месяцев

Сообщений: 20008

Пост Пост: #1 от 18-Окт-2013 06:30

[Цитировать]

Невозмутимый / Холодный как камень / Без эмоций / Stone Cold
Страна: США
Жанр: боевик, драма криминал
Год выпуска: 1991
Продолжительность: 01:28:13
Перевод 1: Профессиональный (двухголосый закадровый) НТВ+
Перевод 2: Авторский (одноголосый закадровый) А.Михалёв
Перевод 3: Авторский (одноголосый закадровый) В.Горчаков
Перевод 4: Авторский (одноголосый закадровый) А.Гаврилов
Cубтитры: английский
Оригинальная аудиодорожка: английский
Режиссер: Крэйг Р. Бэксли / Craig R. Baxley
В ролях: Брайан Босворт, Лэнс Хенриксен, Иллэна Дайамант, Уильям Форсайт, Арабелла Хольцбог, Сэм МакМюррей, Ричард Гант, Пауло Тока, Дэвид Тресс, Ивэн Джеймс
Описание: Джо Хафф — полицейский, который внедряется в банду рокеров, терроризирующую городок в штате Миссисипи, подминая под себя не только рядовых его жителей и подпольных бизнесменов, но и местные органы власти, включая представителей правосудия. Внешность и манеры поведения Джо позволяют ему выдать себя среди рокеров за своего и под именем Джо Стоуна начать разработку операции по захвату всей моторизованной и до зубов вооруженной банды, которой руководит безжалостный Чейнз.
Тип релиза: HDTVRip 720p EbP
Контейнер: MKV
Видео: 1280x694; 25 fps; 5000 kbps
Аудио 1: Русский, AC3 2.0 192 Kbps 48,0 КГц (Профессиональный двухголосый закадровый НТВ+)
Аудио 2: Русский, AC3 2.0 192 Kbps 48,0 КГц (Авторский одноголосый закадровый А.Михалёв)
Аудио 3: Русский, AC3 2.0 192 Kbps 48,0 КГц (Авторский одноголосый закадровый В.Горчаков)
Аудио 4: Русский, AC3 2.0 192 Kbps 48,0 КГц (Авторский одноголосый закадровый А.Гаврилов)
Аудио 5: English, AC3 2.0 448 Kbps 48,0 КГц (Оригинал)
Рип с нового исходника
Звуковые дорожки взяты у edich2, автору большое спасибо. Проведена синхронизация.
За субтитры спасибо
Mirmekiy

MediaInfo

Complete name : Невозмутимый HDTV 720p EbP.mkv
Format : Matroska
Format version : Version 2
File size : 3.83 GiB
Duration : 1h 28mn
Overall bit rate : 6 217 Kbps
Encoded date : UTC 2013-10-17 21:02:34
Writing application : mkvmerge v5.0.1 ('Es ist Sommer') built on Oct 9 2011 11:55:43
Writing library : libebml v1.2.2 + libmatroska v1.3.0
Video
ID : 1
Format : AVC
Format/Info : Advanced Video Codec
Format profile : High@L4.1
Format settings, CABAC : Yes
Format settings, ReFrames : 9 frames
Codec ID : V_MPEG4/ISO/AVC
Duration : 1h 28mn
Bit rate : 5 000 Kbps
Width : 1 280 pixels
Height : 694 pixels
Display aspect ratio : 1.85:1
Frame rate mode : Constant
Frame rate : 25.000 fps
Color space : YUV
Chroma subsampling : 4:2:0
Bit depth : 8 bits
Scan type : Progressive
Bits/(Pixel*Frame) : 0.225
Stream size : 3.01 GiB (78%)
Writing library : x264 core 133 r2334 a3ac64b
Encoding settings : cabac=1 / ref=9 / deblock=1:-3:-3 / analyse=0x3:0x133 / me=tesa / subme=11 / psy=1 / psy_rd=1.05:0.00 / mixed_ref=1 / me_range=32 / chroma_me=1 / trellis=2 / 8x8dct=1 / cqm=0 / deadzone=21,11 / fast_pskip=0 / chroma_qp_offset=-2 / threads=12 / lookahead_threads=2 / sliced_threads=0 / nr=0 / decimate=0 / interlaced=0 / bluray_compat=0 / constrained_intra=0 / bframes=8 / b_pyramid=2 / b_adapt=2 / b_bias=0 / direct=3 / weightb=1 / open_gop=0 / weightp=2 / keyint=250 / keyint_min=25 / scenecut=40 / intra_refresh=0 / rc=2pass / mbtree=0 / bitrate=5000 / ratetol=1.0 / qcomp=0.60 / qpmin=0 / qpmax=69 / qpstep=4 / cplxblur=20.0 / qblur=0.5 / ip_ratio=1.40 / pb_ratio=1.30 / aq=1:0.75
Language : English
Default : Yes
Forced : No
Audio #1
ID : 2
Format : AC-3
Format/Info : Audio Coding 3
Mode extension : CM (complete main)
Format settings, Endianness : Big
Codec ID : A_AC3
Duration : 1h 28mn
Bit rate mode : Constant
Bit rate : 192 Kbps
Channel(s) : 2 channels
Channel positions : Front: L R
Sampling rate : 48.0 KHz
Bit depth : 16 bits
Compression mode : Lossy
Stream size : 121 MiB (3%)
Title : Двухголосый закадровый НТВ+
Language : Russian
Default : Yes
Forced : No
Audio #2
ID : 3
Format : AC-3
Format/Info : Audio Coding 3
Mode extension : CM (complete main)
Format settings, Endianness : Big
Codec ID : A_AC3
Duration : 1h 28mn
Bit rate mode : Constant
Bit rate : 192 Kbps
Channel(s) : 2 channels
Channel positions : Front: L R
Sampling rate : 48.0 KHz
Bit depth : 16 bits
Compression mode : Lossy
Stream size : 121 MiB (3%)
Title : Авторский А.Михалёв
Language : Russian
Default : No
Forced : No
Audio #3
ID : 4
Format : AC-3
Format/Info : Audio Coding 3
Mode extension : CM (complete main)
Format settings, Endianness : Big
Codec ID : A_AC3
Duration : 1h 28mn
Bit rate mode : Constant
Bit rate : 192 Kbps
Channel(s) : 2 channels
Channel positions : Front: L R
Sampling rate : 48.0 KHz
Bit depth : 16 bits
Compression mode : Lossy
Stream size : 121 MiB (3%)
Title : Авторский В.Горчаков
Language : Russian
Default : No
Forced : No
Audio #4
ID : 5
Format : AC-3
Format/Info : Audio Coding 3
Mode extension : CM (complete main)
Format settings, Endianness : Big
Codec ID : A_AC3
Duration : 1h 28mn
Bit rate mode : Constant
Bit rate : 192 Kbps
Channel(s) : 2 channels
Channel positions : Front: L R
Sampling rate : 48.0 KHz
Bit depth : 16 bits
Compression mode : Lossy
Stream size : 121 MiB (3%)
Title : Авторский А.Гаврилов
Language : Russian
Default : No
Forced : No
Audio #5
ID : 6
Format : AC-3
Format/Info : Audio Coding 3
Mode extension : CM (complete main)
Format settings, Endianness : Big
Codec ID : A_AC3
Duration : 1h 28mn
Bit rate mode : Constant
Bit rate : 448 Kbps
Channel(s) : 2 channels
Channel positions : Front: L R
Sampling rate : 48.0 KHz
Bit depth : 16 bits
Compression mode : Lossy
Stream size : 283 MiB (7%)
Title : Оригинал
Language : English
Default : No
Forced : No
Text
ID : 7
Format : UTF-8
Codec ID : S_TEXT/UTF8
Codec ID/Info : UTF-8 Plain Text
Language : English
Default : Yes
Forced : No

x264log

x264 [info]: frame I:1017 Avg QP:13.95 size: 91380
x264 [info]: frame P:38780 Avg QP:16.70 size: 41055
x264 [info]: frame B:92549 Avg QP:18.51 size: 17527
x264 [info]: consecutive B-frames: 4.8% 7.1% 10.6% 59.4% 10.7% 5.3% 1.5% 0.5% 0.1%
encoded 132346 frames, 3.07 fps, 4997.81 kb/s

Сравнение

--------------Source-------------vs ------------Encode

Скриншоты

Скачать

Скачать торрент!

Как скачивать? · Что такое торрент? · Рейтинг и ограничения

Сайт не распространяет и не хранит электронные версии произведений, а лишь предоставляет доступ к создаваемому пользователями каталогу ссылок на торрент-файлы, которые содержат только списки хеш-сумм

[Профиль] [ЛС]
Показать сообщения:    
Ответить на тему

Текущее время: Сегодня 13:49

Часовой пояс: GMT + 4



Вы не можете начинать темы
Вы не можете отвечать на сообщения
Вы не можете редактировать свои сообщения
Вы не можете удалять свои сообщения
Вы не можете голосовать в опросах
Вы не можете прикреплять файлы к сообщениям
Вы не можете скачивать файлы