Проклятие Чаки / Curse of Chucky (Дон Манчини / Don Mancini) [2013, США, ужасы, триллер, BDRip 720p] [Unrated] Dub + MVO (ViruseProject) + Original (Eng) + Sub (Rus, Eng)

Ответить на тему
 
Автор Сообщение

user ®

Стаж: 7 лет 7 месяцев

Сообщений: 20008

Пост Пост: #1 от 17-Окт-2013 22:30

[Цитировать]

Проклятие Чаки / Curse of Chucky
Страна: США
Студия: Universal 1440 Entertainment
Жанр: триллер, ужасы
Год выпуска: 2013
Продолжительность: 01:36:41
Перевод 1: Профессиональный (дублированный) [Blu-ray CEE]
Перевод 2: Любительский (многоголосый закадровый) [ViruseProject]
Оригинальная аудиодорожка: английская
Cубтитры: русские, английские
Режиссер: Дон Манчини / Don Mancini
В ролях: Даниэль Бисутти, Дженнифер Тилли, Брэд Дуриф, Фиона Дуриф, Эй Мартинез, Мейтленд МакКоннелл, Бреннан Эллиотт, Шэнтал Куэснел, Саммер Х. Хауэлл, Али Татарин
Описание: В центре событий окажется молодая женщина по имени Ника тяжело переживающая самоубийство матери. Ее старшая сестра Барбара - властная, волевая женщина, - приезжает вместе с семьей к Нике, чтобы поддержать ее и уладить дела матери. Пока сестры заняты делом, малолетняя дочь Барбары находит в доме посылку пришедшую от неизвестного адресата, а в ней рыжеволосую куклу Чаки. Вскоре происходит череда кровавых убийств. Ника начинает подозревать, что в убийствах неким образом замешана кукла. По ходу дела выясняется, что у Чаки во всем этом есть особый интерес. Он решил закончить работу которую начал 20 лет назад, и в этот раз он намерен довести дело до кровавого и шокирующего финала.

Релиз: fanatus
Качество видео: BDRip 720p
Исходник: Curse of Chucky 2013 Unrated 1080p CEE Blu-ray AVC DTS-HD MA 5.1-TTG
Контейнер: MKV
Видео: MPEG-4 AVC, 7000 Kbps , 1280x720 (16:9), 23.976 fps, 0.317 bit/pixel
Аудио 1: русский (DTS, 6 ch, 48 kHz, 755 kbps) Dub (Blu-ray CEE)
Аудио 2: русский (DTS, 6 ch, 48 kHz, 1510 kbps) MVO (ViruseProject)
Аудио 3: английский (DTS, 6 ch, 48 kHz, 1510 kbps) Original
Формат субтитров: softsub (SRT)
Главы: есть

MediaInfo

General
Unique ID : 203378862813595562150951709736589969291 (0x9901581D26B8289CA69DE78ED591C78B)
Complete name : F:\Curse of Chucky.Unrated.2013.x264.BDRip.720p.fanatus.mkv
Format : Matroska
Format version : Version 2
File size : 7.29 GiB
Duration : 1h 36mn
Overall bit rate : 10.8 Mbps
Movie name : Curse of Chucky (2013) - fanatus
Encoded date : UTC 2013-10-16 20:51:23
Writing application : mkvmerge v3.4.0 ('Rapunzel') сборка от May 15 2010 09:38:20
Writing library : libebml v0.8.0 + libmatroska v0.9.0
Video
ID : 1
Format : AVC
Format/Info : Advanced Video Codec
Format profile : High@L4.1
Format settings, CABAC : Yes
Format settings, ReFrames : 9 frames
Codec ID : V_MPEG4/ISO/AVC
Duration : 1h 36mn
Bit rate : 7 000 Kbps
Width : 1 280 pixels
Height : 720 pixels
Display aspect ratio : 16:9
Frame rate : 23.976 fps
Color space : YUV
Chroma subsampling : 4:2:0
Bit depth : 8 bits
Scan type : Progressive
Bits/(Pixel*Frame) : 0.317
Stream size : 4.59 GiB (63%)
Title : Curse of Chucky (2013)
Writing library : x264 core 138 r2358kMod 9e941d1
Encoding settings : cabac=1 / ref=9 / deblock=1:-3:-3 / analyse=0x3:0x113 / me=umh / subme=11 / psy=1 / fade_compensate=0.00 / psy_rd=1.00:0.15 / mixed_ref=1 / me_range=48 / chroma_me=1 / trellis=2 / 8x8dct=1 / cqm=0 / deadzone=21,11 / fast_pskip=0 / chroma_qp_offset=-3 / threads=16 / lookahead_threads=4 / sliced_threads=0 / nr=0 / decimate=0 / interlaced=0 / bluray_compat=0 / constrained_intra=0 / bframes=10 / b_pyramid=2 / b_adapt=2 / b_bias=0 / direct=3 / weightb=1 / open_gop=0 / weightp=2 / keyint=240 / keyint_min=23 / scenecut=40 / intra_refresh=0 / rc_lookahead=240 / rc=2pass / mbtree=1 / bitrate=7000 / ratetol=1.0 / qcomp=0.75 / qpmin=0 / qpmax=69 / qpstep=4 / cplxblur=20.0 / qblur=0.5 / vbv_maxrate=50000 / vbv_bufsize=62500 / nal_hrd=none / ip_ratio=1.40 / aq=3:0.75
Language : English
Default : Yes
Forced : No
Audio #1
ID : 2
Format : DTS
Format/Info : Digital Theater Systems
Codec ID : A_DTS
Duration : 1h 36mn
Bit rate mode : Constant
Bit rate : 755 Kbps
Channel(s) : 6 channels
Channel positions : Front: L C R, Side: L R, LFE
Sampling rate : 48.0 KHz
Bit depth : 24 bits
Compression mode : Lossy
Stream size : 522 MiB (7%)
Title : Dub
Language : Russian
Default : Yes
Forced : No
Audio #2
ID : 3
Format : DTS
Format/Info : Digital Theater Systems
Codec ID : A_DTS
Duration : 1h 36mn
Bit rate mode : Constant
Bit rate : 1 510 Kbps
Channel(s) : 6 channels
Channel positions : Front: L C R, Side: L R, LFE
Sampling rate : 48.0 KHz
Bit depth : 24 bits
Compression mode : Lossy
Stream size : 1.02 GiB (14%)
Title : MVO (ViruseProject)
Language : Russian
Default : No
Forced : No
Audio #3
ID : 4
Format : DTS
Format/Info : Digital Theater Systems
Codec ID : A_DTS
Duration : 1h 36mn
Bit rate mode : Constant
Bit rate : 1 510 Kbps
Channel(s) : 6 channels
Channel positions : Front: L C R, Side: L R, LFE
Sampling rate : 48.0 KHz
Bit depth : 24 bits
Compression mode : Lossy
Stream size : 1.02 GiB (14%)
Title : Original
Default : No
Forced : No
Text #1
ID : 5
Format : UTF-8
Codec ID : S_TEXT/UTF8
Codec ID/Info : UTF-8 Plain Text
Title : Forced
Language : Russian
Default : Yes
Forced : Yes
Text #2
ID : 6
Format : UTF-8
Codec ID : S_TEXT/UTF8
Codec ID/Info : UTF-8 Plain Text
Title : BluRay
Language : Russian
Default : No
Forced : No
Text #3
ID : 7
Format : UTF-8
Codec ID : S_TEXT/UTF8
Codec ID/Info : UTF-8 Plain Text
Title : Notabenoid
Language : Russian
Default : No
Forced : No
Text #4
ID : 8
Format : UTF-8
Codec ID : S_TEXT/UTF8
Codec ID/Info : UTF-8 Plain Text
Language : English
Default : No
Forced : No
Menu
00:00:00.000 : en:Chapter 01
00:04:45.410 : en:Chapter 02
00:08:48.486 : en:Chapter 03
00:15:30.679 : en:Chapter 04
00:20:24.306 : en:Chapter 05
00:27:34.653 : en:Chapter 06
00:32:42.502 : en:Chapter 07
00:37:47.139 : en:Chapter 08
00:43:51.670 : en:Chapter 09
00:46:54.186 : en:Chapter 10
00:51:29.336 : en:Chapter 11
00:56:46.903 : en:Chapter 12
01:01:29.686 : en:Chapter 13
01:05:34.347 : en:Chapter 14
01:09:09.270 : en:Chapter 15
01:13:41.250 : en:Chapter 16
01:20:23.235 : en:Chapter 17
01:24:53.505 : en:Chapter 18
01:28:31.764 : en:Chapter 19
01:31:47.460 : en:Chapter 20
01:36:40.836 : en:Chapter 21

x264 [info]

x264 [info]: 1280x720p 1:1 @ 24000/1001 fps (cfr)
x264 [info]: using SAR=1/1
x264 [info]: using cpu capabilities: MMX2 SSE2Fast SSSE3 SSE4.2 AVX
x264 [info]: profile High, level 4.1
x264 [info]: frame I:1088 Avg QP:12.97 size:185936
x264 [info]: frame P:28323 Avg QP:15.98 size: 61237
x264 [info]: frame B:109676 Avg QP:16.99 size: 28622
x264 [info]: consecutive B-frames: 2.2% 2.0% 6.3% 12.1% 13.8% 51.0% 6.1% 2.2% 1.6% 1.0% 1.7%
x264 [info]: mb I I16..4: 27.4% 51.4% 21.2%
x264 [info]: mb P I16..4: 1.4% 11.8% 1.5% P16..4: 28.3% 36.8% 16.0% 0.0% 0.0% skip: 4.2%
x264 [info]: mb B I16..4: 0.2% 2.1% 0.1% B16..8: 33.9% 23.7% 5.1% direct: 8.6% skip:26.3% L0:46.6% L1:39.7% BI:13.7%
x264 [info]: 8x8 transform intra:78.7% inter:47.3%
x264 [info]: direct mvs spatial:98.4% temporal:1.6%
x264 [info]: coded y,uvDC,uvAC intra: 95.3% 87.4% 79.1% inter: 36.8% 36.2% 20.0%
x264 [info]: i16 v,h,dc,p: 13% 3% 26% 58%
x264 [info]: i8 v,h,dc,ddl,ddr,vr,hd,vl,hu: 11% 7% 13% 9% 12% 12% 11% 12% 12%
x264 [info]: i4 v,h,dc,ddl,ddr,vr,hd,vl,hu: 11% 7% 7% 10% 15% 15% 12% 12% 12%
x264 [info]: i8c dc,h,v,p: 54% 18% 13% 15%
x264 [info]: Weighted P-Frames: Y:6.4% UV:3.7%
x264 [info]: ref P L0: 39.2% 6.7% 21.8% 8.2% 7.9% 5.1% 5.1% 2.6% 2.9% 0.4% 0.0%
x264 [info]: ref B L0: 63.5% 15.8% 7.9% 4.6% 3.4% 2.9% 1.5% 0.5%
x264 [info]: ref B L1: 90.3% 9.7%
x264 [info]: kb/s:6999.87
x264 [info]: encoded 139087 frames, 4.38 fps, 6999.87 kb/s, duration 8:49:06.52

Скриншот c названием фильма

Скриншоты

Source vs Rip




Скачать

Скачать торрент!

Как скачивать? · Что такое торрент? · Рейтинг и ограничения

Сайт не распространяет и не хранит электронные версии произведений, а лишь предоставляет доступ к создаваемому пользователями каталогу ссылок на торрент-файлы, которые содержат только списки хеш-сумм

[Профиль] [ЛС]
Показать сообщения:    
Ответить на тему

Текущее время: Сегодня 16:25

Часовой пояс: GMT + 4



Вы не можете начинать темы
Вы не можете отвечать на сообщения
Вы не можете редактировать свои сообщения
Вы не можете удалять свои сообщения
Вы не можете голосовать в опросах
Вы не можете прикреплять файлы к сообщениям
Вы не можете скачивать файлы