Проклятие Чаки / Curse of Chucky (Дон Манчини / Don Mancini) [2013, США, ужасы, триллер, BDRip 1080p] [Unrated] Dub + MVO (ViruseProject) + Original (Eng) + Sub (Rus, Eng)

Ответить на тему
 
Автор Сообщение

user ®

Стаж: 7 лет 7 месяцев

Сообщений: 20008

Пост Пост: #1 от 17-Окт-2013 22:30

[Цитировать]

Проклятие Чаки / Curse of Chucky
Страна: США
Студия: Universal 1440 Entertainment
Жанр: триллер, ужасы
Год выпуска: 2013
Продолжительность: 01:36:41
Перевод 1: Профессиональный (дублированный) [Blu-ray CEE]
Перевод 2: Любительский (многоголосый закадровый) [ViruseProject]
Оригинальная аудиодорожка: английская
Cубтитры: русские, английские
Режиссер: Дон Манчини / Don Mancini
В ролях: Даниэль Бисутти, Дженнифер Тилли, Брэд Дуриф, Фиона Дуриф, Эй Мартинез, Мейтленд МакКоннелл, Бреннан Эллиотт, Шэнтал Куэснел, Саммер Х. Хауэлл, Али Татарин
Описание: В центре событий окажется молодая женщина по имени Ника тяжело переживающая самоубийство матери. Ее старшая сестра Барбара - властная, волевая женщина, - приезжает вместе с семьей к Нике, чтобы поддержать ее и уладить дела матери. Пока сестры заняты делом, малолетняя дочь Барбары находит в доме посылку пришедшую от неизвестного адресата, а в ней рыжеволосую куклу Чаки. Вскоре происходит череда кровавых убийств. Ника начинает подозревать, что в убийствах неким образом замешана кукла. По ходу дела выясняется, что у Чаки во всем этом есть особый интерес. Он решил закончить работу которую начал 20 лет назад, и в этот раз он намерен довести дело до кровавого и шокирующего финала.

Релиз: fanatus
Качество видео: BDRip 1080p
Исходник: Curse of Chucky 2013 Unrated 1080p CEE Blu-ray AVC DTS-HD MA 5.1-TTG
Контейнер: MKV
Видео: MPEG-4 AVC, 17 Mbps , 1920x1080 (16:9), 23.976 fps, 0.342 bit/pixel
Аудио 1: русский (DTS, 6 ch, 48 kHz, 755 kbps) Dub (Blu-ray CEE)
Аудио 2: русский (DTS, 6 ch, 48 kHz, 1510 kbps) MVO (ViruseProject)
Аудио 3: английский (DTS, 6 ch, 48 kHz, 1510 kbps) Original
Формат субтитров: softsub (SRT)
Главы: есть

MediaInfo

General
Unique ID : 177352200634553800935350080612270973627 (0x856CCA989175AD32B36C5BEFB465A2BB)
Complete name : F:\Curse of Chucky.Unrated.2013.x264.BDRip.1080p.fanatus.mkv
Format : Matroska
Format version : Version 2
File size : 14.0 GiB
Duration : 1h 36mn
Overall bit rate : 20.8 Mbps
Movie name : Curse of Chucky (2013) - fanatus
Encoded date : UTC 2013-10-17 05:07:36
Writing application : mkvmerge v3.4.0 ('Rapunzel') сборка от May 15 2010 09:38:20
Writing library : libebml v0.8.0 + libmatroska v0.9.0
Video
ID : 1
Format : AVC
Format/Info : Advanced Video Codec
Format profile : High@L4.1
Format settings, CABAC : Yes
Format settings, ReFrames : 4 frames
Codec ID : V_MPEG4/ISO/AVC
Duration : 1h 36mn
Bit rate : 17.0 Mbps
Width : 1 920 pixels
Height : 1 080 pixels
Display aspect ratio : 16:9
Frame rate : 23.976 fps
Color space : YUV
Chroma subsampling : 4:2:0
Bit depth : 8 bits
Scan type : Progressive
Bits/(Pixel*Frame) : 0.342
Stream size : 11.2 GiB (80%)
Title : Curse of Chucky (2013)
Writing library : x264 core 138 r2358kMod 9e941d1
Encoding settings : cabac=1 / ref=4 / deblock=1:-3:-3 / analyse=0x3:0x113 / me=umh / subme=11 / psy=1 / fade_compensate=0.00 / psy_rd=1.05:0.00 / mixed_ref=1 / me_range=48 / chroma_me=1 / trellis=2 / 8x8dct=1 / cqm=0 / deadzone=21,11 / fast_pskip=0 / chroma_qp_offset=-2 / threads=16 / lookahead_threads=2 / sliced_threads=0 / nr=0 / decimate=0 / interlaced=0 / bluray_compat=0 / constrained_intra=0 / bframes=8 / b_pyramid=2 / b_adapt=2 / b_bias=0 / direct=3 / weightb=1 / open_gop=0 / weightp=2 / keyint=240 / keyint_min=23 / scenecut=40 / intra_refresh=0 / rc_lookahead=240 / rc=2pass / mbtree=0 / bitrate=17000 / ratetol=1.0 / qcomp=0.65 / qpmin=0 / qpmax=69 / qpstep=4 / cplxblur=20.0 / qblur=0.5 / vbv_maxrate=50000 / vbv_bufsize=62500 / nal_hrd=none / ip_ratio=1.40 / pb_ratio=1.30 / aq=3:0.85
Language : English
Default : Yes
Forced : No
Audio #1
ID : 2
Format : DTS
Format/Info : Digital Theater Systems
Codec ID : A_DTS
Duration : 1h 36mn
Bit rate mode : Constant
Bit rate : 755 Kbps
Channel(s) : 6 channels
Channel positions : Front: L C R, Side: L R, LFE
Sampling rate : 48.0 KHz
Bit depth : 24 bits
Compression mode : Lossy
Stream size : 522 MiB (4%)
Title : Dub
Language : Russian
Default : Yes
Forced : No
Audio #2
ID : 3
Format : DTS
Format/Info : Digital Theater Systems
Codec ID : A_DTS
Duration : 1h 36mn
Bit rate mode : Constant
Bit rate : 1 510 Kbps
Channel(s) : 6 channels
Channel positions : Front: L C R, Side: L R, LFE
Sampling rate : 48.0 KHz
Bit depth : 24 bits
Compression mode : Lossy
Stream size : 1.02 GiB (7%)
Title : MVO (ViruseProject)
Language : Russian
Default : No
Forced : No
Audio #3
ID : 4
Format : DTS
Format/Info : Digital Theater Systems
Codec ID : A_DTS
Duration : 1h 36mn
Bit rate mode : Constant
Bit rate : 1 510 Kbps
Channel(s) : 6 channels
Channel positions : Front: L C R, Side: L R, LFE
Sampling rate : 48.0 KHz
Bit depth : 24 bits
Compression mode : Lossy
Stream size : 1.02 GiB (7%)
Title : Original
Language : English
Default : No
Forced : No
Text #1
ID : 5
Format : UTF-8
Codec ID : S_TEXT/UTF8
Codec ID/Info : UTF-8 Plain Text
Title : Forced
Language : Russian
Default : Yes
Forced : Yes
Text #2
ID : 6
Format : UTF-8
Codec ID : S_TEXT/UTF8
Codec ID/Info : UTF-8 Plain Text
Title : BluRay
Language : Russian
Default : No
Forced : No
Text #3
ID : 7
Format : UTF-8
Codec ID : S_TEXT/UTF8
Codec ID/Info : UTF-8 Plain Text
Title : Notabenoid
Language : Russian
Default : No
Forced : No
Text #4
ID : 8
Format : UTF-8
Codec ID : S_TEXT/UTF8
Codec ID/Info : UTF-8 Plain Text
Language : English
Default : No
Forced : No
Menu
00:00:00.000 : en:Chapter 01
00:04:45.410 : en:Chapter 02
00:08:48.486 : en:Chapter 03
00:15:30.679 : en:Chapter 04
00:20:24.306 : en:Chapter 05
00:27:34.653 : en:Chapter 06
00:32:42.502 : en:Chapter 07
00:37:47.139 : en:Chapter 08
00:43:51.670 : en:Chapter 09
00:46:54.186 : en:Chapter 10
00:51:29.336 : en:Chapter 11
00:56:46.903 : en:Chapter 12
01:01:29.686 : en:Chapter 13
01:05:34.347 : en:Chapter 14
01:09:09.270 : en:Chapter 15
01:13:41.250 : en:Chapter 16
01:20:23.235 : en:Chapter 17
01:24:53.505 : en:Chapter 18
01:28:31.764 : en:Chapter 19
01:31:47.460 : en:Chapter 20
01:36:40.836 : en:Chapter 21

x264 [info]

x264 [info]: 1920x1080p 1:1 @ 24000/1001 fps (cfr)
x264 [info]: using SAR=1/1
x264 [info]: using cpu capabilities: MMX2 SSE2Fast LZCNT
x264 [info]: profile High, level 4.1
x264 [info]: frame I:977 Avg QP:14.33 size:269313
x264 [info]: frame P:31718 Avg QP:16.01 size:140628
x264 [info]: frame B:106392 Avg QP:17.92 size: 71453
x264 [info]: consecutive B-frames: 2.4% 2.5% 18.2% 8.6% 14.4% 47.4% 4.3% 1.2% 1.0%
x264 [info]: mb I I16..4: 3.8% 94.7% 1.6%
x264 [info]: mb P I16..4: 0.9% 33.8% 0.3% P16..4: 25.2% 26.5% 9.5% 0.0% 0.0% skip: 3.7%
x264 [info]: mb B I16..4: 0.2% 12.9% 0.0% B16..8: 36.8% 18.6% 3.2% direct: 7.4% skip:20.8% L0:45.2% L1:38.6% BI:16.2%
x264 [info]: 8x8 transform intra:97.2% inter:70.9%
x264 [info]: direct mvs spatial:97.7% temporal:2.3%
x264 [info]: coded y,uvDC,uvAC intra: 94.6% 92.1% 85.8% inter: 38.9% 45.9% 19.4%
x264 [info]: i16 v,h,dc,p: 58% 9% 6% 27%
x264 [info]: i8 v,h,dc,ddl,ddr,vr,hd,vl,hu: 11% 7% 30% 8% 8% 9% 8% 9% 10%
x264 [info]: i4 v,h,dc,ddl,ddr,vr,hd,vl,hu: 14% 6% 23% 7% 12% 12% 9% 8% 8%
x264 [info]: i8c dc,h,v,p: 67% 14% 10% 10%
x264 [info]: Weighted P-Frames: Y:5.0% UV:3.4%
x264 [info]: ref P L0: 50.3% 7.8% 28.1% 11.1% 2.6% 0.1%
x264 [info]: ref B L0: 80.0% 16.3% 3.6%
x264 [info]: ref B L1: 89.6% 10.4%
x264 [info]: kb/s:16997.63
x264 [info]: encoded 139087 frames, 3.36 fps, 16997.63 kb/s, duration 11:29:56.10

Скриншот c названием фильма

Скриншоты

Скачать

Скачать торрент!

Как скачивать? · Что такое торрент? · Рейтинг и ограничения

Сайт не распространяет и не хранит электронные версии произведений, а лишь предоставляет доступ к создаваемому пользователями каталогу ссылок на торрент-файлы, которые содержат только списки хеш-сумм

[Профиль] [ЛС]
Показать сообщения:    
Ответить на тему

Текущее время: Сегодня 08:12

Часовой пояс: GMT + 4



Вы не можете начинать темы
Вы не можете отвечать на сообщения
Вы не можете редактировать свои сообщения
Вы не можете удалять свои сообщения
Вы не можете голосовать в опросах
Вы не можете прикреплять файлы к сообщениям
Вы не можете скачивать файлы