Аурангзеб / Aurangzeb (Атул Сабхарвал / Atul Sabharwal) [2013, Индия, Боевик, драма, триллер, HDRip] MVO

Ответить на тему
 
Автор Сообщение

user ®

Стаж: 12 лет

Сообщений: 15124

Пост Пост: #1 от 17-Окт-2013 19:20

[Цитировать]

Аурангзеб / Aurangzeb
Страна: Индия
Жанр: Боевик, драма, триллер
Год выпуска: 2013
Продолжительность: 02:17:32
Перевод: Любительский (многоголосый закадровый) IndianCinemaGroup
Cубтитры: русские (вшитые, только на тексты песен)
Режиссер: Атул Сабхарвал / Atul Sabharwal
В ролях: Арджун Капур, Притхвирадж Сукумаран, Риши Капур, Джеки Шрофф, Саша Агха, Анупам Кхер, Сикандер Кхер, Амрита Сингх, Танви Азми
Описание: Яшвардан – король и бог рынка недвижимости в Гургаоне, но это лишь фасад, за которым криминальный мир. Зам.начальника полиции Равиканту удается схватить сына Яшвардана - Арджуна, прожигателя жизни и дебошира, и пока его пытают в тюрьме, его место в доме отца занимает похожий, как две капли воды на него, его брат – Вишал. Цель у Равиканта и Вишала была одна – уничтожить Яшвардана и его бизнес. Но что важнее – честь или семья, кровные узы или убеждения… И все ли такие, какими кажутся…
Доп. информация: Исходник BDRip (720p) (СПАСИБО! jasinpapa)
Роли озвучивали: Александр Галушко, Александр Нелюбин, Ирина Грачева, Марина Комчарукова и Андрей Хомяков
Перевод на русский язык: Oksanchic
Качество видео: HDRip
Формат видео: AVI
Видео: XviD build 50, 688x288 (2.39:1), 24.000 fps, 1382 kbps avg
Аудио: MPEG Layer 3, 48 kHz, 2/0 (L,R) ch, 128.00 kbps avg

MediaInfo

General
Complete name : D:\Aurangzeb.2013.HDRip-Dego.avi
Format : AVI
Format/Info : Audio Video Interleave
File size : 1.46 GiB
Duration : 2h 17mn
Overall bit rate : 1 520 Kbps
Writing application : VirtualDubMod 1.5.10.2 (build 2540/release)
Writing library : VirtualDubMod build 2540/release
Video
ID : 0
Format : MPEG-4 Visual
Format profile : AdvancedSimple@L5
Format settings, BVOP : Yes
Format settings, QPel : No
Format settings, GMC : No warppoints
Format settings, Matrix : Default (MPEG)
Codec ID : XVID
Codec ID/Hint : XviD
Duration : 2h 17mn
Bit rate : 1 382 Kbps
Width : 688 pixels
Height : 288 pixels
Display aspect ratio : 2.35
Frame rate : 24.000 fps
Resolution : 24 bits
Colorimetry : 4:2:0
Scan type : Progressive
Bits/(Pixel*Frame) : 0.291
Stream size : 1.33 GiB (91%)
Writing library : XviD 1.2.1 (UTC 2008-12-04)
Audio
ID : 1
Format : MPEG Audio
Format version : Version 1
Format profile : Layer 3
Codec ID : 55
Codec ID/Hint : MP3
Duration : 2h 17mn
Bit rate mode : Constant
Bit rate : 128 Kbps
Channel(s) : 2 channels
Sampling rate : 48.0 KHz
Resolution : 16 bits
Stream size : 126 MiB (8%)
Alignment : Aligned on interleaves
Interleave, duration : 42 ms (1.00 video frame)
Interleave, preload duration : 504 ms
Writing library : LAME3.98r
Encoding settings : -m s -V 4 -q 2 -lowpass 17 -b 128

Скриншот c названием фильма

Скриншоты

Скачать

Скачать торрент! Аурангзеб / Aurangzeb (Атул Сабхарвал / Atul Sabharwal) [2013, Индия, Боевик, драма, триллер, HDRip] MVO

Как скачивать? · Что такое торрент? · Рейтинг и ограничения

Сайт не распространяет и не хранит электронные версии произведений, а лишь предоставляет доступ к создаваемому пользователями каталогу ссылок на торрент-файлы, которые содержат только списки хеш-сумм

[Профиль] [ЛС]
Показать сообщения:    
Ответить на тему

Текущее время: Сегодня 13:12

Часовой пояс: GMT + 4



Вы не можете начинать темы
Вы не можете отвечать на сообщения
Вы не можете редактировать свои сообщения
Вы не можете удалять свои сообщения
Вы не можете голосовать в опросах
Вы не можете прикреплять файлы к сообщениям
Вы не можете скачивать файлы