Невероятный Бёрт Уандерстоун / The Incredible Burt Wonderstone (Дон Скардино / Don Scardino) [2013, США, комедия, BDRip-AVC] MVO (Blu-ray) + MVO (BaiBako) + Sub Rus, Eng + Original Eng

Ответить на тему
 
Автор Сообщение

user ®

Стаж: 7 лет 7 месяцев

Сообщений: 20008

Пост Пост: #1 от 17-Окт-2013 16:15

[Цитировать]

Невероятный Бёрт Уандерстоун / The Incredible Burt Wonderstone- Страна: США
Жанр: комедия
Год выпуска: 2013
Продолжительность: 1h 40mn 18s
Перевод: Профессиональный (многоголосый закадровый) Blu-ray
Перевод 2: Профессиональный (многоголосый закадровый) BaiBako
Cубтитры: русские (forced, full), английские (full, SDH, SDH-COLORED)
Оригинальная аудиодорожка: английский
Режиссер: Дон Скардино / Don Scardino
В ролях:
Стив Карелл / Steve Carell
Стив Бушеми / Steve Buscemi
Оливия Уайлд / Olivia Wilde
Джим Керри / Jim Carrey

Джеймс Гандольфини / James Gandolfini, Алан Аркин, Джей Мор, Михаэль Хербиг, Мэйсон Кук, Люк Ванек-ОписаниеФильм рассказывает историю двух фокусников-конкурентов в Лас-Вегасе. Берт Уандерстоун однажды во время исполнения номера лишается напарника, и все оставшееся время пытается вернуть себе мотивацию и вернуться к любимому занятию.-Сэмпл

IMDb: 5.90 (33 327)
Качество видео: BDRip-AVC
Формат видео: MKV
Видео: AVC 2995 Kbps 1056 x 440 (2.400) 23.976 fps
Аудио: AC-3 384 Kbps 6 channels, 48.0 KHz MVO, Blu-ray
Аудио 2: AC-3 384 Kbps 6 channels, 48.0 KHz MVO, BaiBako
Аудио 3: AC-3 384 Kbps 6 channels, 48.0 KHz Eng
Формат субтитров: softsub (SRT)

MediaInfo | Log

Log

raw [info]: 1056x440p 1:1 @ 2500000/104271 fps (cfr)
x264 [info]: using SAR=1/1
x264 [info]: using cpu capabilities: MMX2 SSE2Fast SSSE3 SSE4.2 AVX
x264 [info]: profile High, level 4.1
x264 [info]: frame I:1567 Avg QP:14.63 size: 97715
x264 [info]: frame P:30987 Avg QP:17.61 size: 33722
x264 [info]: frame B:111735 Avg QP:20.50 size: 9438
x264 [info]: consecutive B-frames: 2.1% 1.9% 5.5% 27.4% 20.5% 31.4% 6.5% 2.8% 1.9%
x264 [info]: mb I I16..4: 5.7% 65.4% 28.8%
x264 [info]: mb P I16..4: 0.6% 8.0% 1.6% P16..4: 29.2% 38.0% 16.5% 3.2% 0.4% skip: 2.3%
x264 [info]: mb B I16..4: 0.0% 1.2% 0.1% B16..8: 36.7% 21.0% 4.2% direct: 5.6% skip:31.3% L0:43.7% L1:42.9% BI:13.5%
x264 [info]: 8x8 transform intra:77.4% inter:55.2%
x264 [info]: direct mvs spatial:97.4% temporal:2.6%
x264 [info]: coded y,uvDC,uvAC intra: 92.6% 89.5% 76.6% inter: 28.2% 21.8% 9.3%
x264 [info]: i16 v,h,dc,p: 41% 13% 14% 31%
x264 [info]: i8 v,h,dc,ddl,ddr,vr,hd,vl,hu: 14% 7% 10% 9% 12% 13% 11% 12% 12%
x264 [info]: i4 v,h,dc,ddl,ddr,vr,hd,vl,hu: 17% 8% 5% 9% 13% 14% 11% 11% 11%
x264 [info]: i8c dc,h,v,p: 45% 20% 19% 16%
x264 [info]: Weighted P-Frames: Y:3.5% UV:1.8%
x264 [info]: ref P L0: 41.6% 9.2% 19.0% 6.9% 6.5% 4.3% 4.3% 2.1% 2.3% 1.7% 1.9% 0.2% 0.0%
x264 [info]: ref B L0: 69.6% 12.3% 6.1% 3.4% 2.6% 2.1% 1.7% 1.1% 0.7% 0.3%
x264 [info]: ref B L1: 92.4% 7.6%
x264 [info]: kb/s:2994.42
x264 [total]: encoded 144289 frames, 12.87 fps, 2994.42 kb/s
Format : Matroska
Format version : Version 4 / Version 2
File size : 2.91 GiB
Duration : 1h 40mn
Overall bit rate : 4 149 Kbps
Encoded date : UTC 2013-10-16 08:45:10
Writing application : mkvmerge v6.4.1 ('Omega Point') built on Sep 16 2013 22:05:10
Writing library : libebml v1.3.0 + libmatroska v1.4.1
Video
ID : 1
Format : AVC
Format/Info : Advanced Video Codec
Format profile : High@L4.1
Format settings, CABAC : Yes
Format settings, ReFrames : 11 frames
Codec ID : V_MPEG4/ISO/AVC
Duration : 1h 40mn
Bit rate : 2 995 Kbps
Width : 1 056 pixels
Height : 440 pixels
Display aspect ratio : 2.40:1
Frame rate mode : Constant
Frame rate : 23.976 fps
Color space : YUV
Chroma subsampling : 4:2:0
Bit depth : 8 bits
Scan type : Progressive
Bits/(Pixel*Frame) : 0.269
Stream size : 2.04 GiB (70%)
Writing library : x264 core 138 r2358 9e941d1
Encoding settings : cabac=1 / ref=11 / deblock=1:-2:-1 / analyse=0x3:0x133 / me=umh / subme=11 / psy=1 / psy_rd=1.00:0.05 / mixed_ref=1 / me_range=32 / chroma_me=1 / trellis=2 / 8x8dct=1 / cqm=0 / deadzone=21,11 / fast_pskip=0 / chroma_qp_offset=-3 / threads=12 / lookahead_threads=2 / sliced_threads=0 / nr=0 / decimate=1 / interlaced=0 / bluray_compat=0 / constrained_intra=0 / bframes=8 / b_pyramid=2 / b_adapt=2 / b_bias=0 / direct=3 / weightb=1 / open_gop=0 / weightp=2 / keyint=250 / keyint_min=23 / scenecut=40 / intra_refresh=0 / rc_lookahead=60 / rc=2pass / mbtree=1 / bitrate=2995 / ratetol=1.0 / qcomp=0.60 / qpmin=0 / qpmax=69 / qpstep=4 / cplxblur=20.0 / qblur=0.5 / ip_ratio=1.40 / aq=1:1.00
Language : English
Default : Yes
Forced : No
Audio #1
ID : 2
Format : AC-3
Format/Info : Audio Coding 3
Mode extension : CM (complete main)
Format settings, Endianness : Big
Codec ID : A_AC3
Duration : 1h 40mn
Bit rate mode : Constant
Bit rate : 384 Kbps
Channel(s) : 6 channels
Channel positions : Front: L C R, Side: L R, LFE
Sampling rate : 48.0 KHz
Bit depth : 16 bits
Compression mode : Lossy
Stream size : 275 MiB (9%)
Title : Rus (MVO, Blu-ray)
Language : Russian
Default : Yes
Forced : No
Audio #2
ID : 3
Format : AC-3
Format/Info : Audio Coding 3
Mode extension : CM (complete main)
Format settings, Endianness : Big
Codec ID : A_AC3
Duration : 1h 40mn
Bit rate mode : Constant
Bit rate : 384 Kbps
Channel(s) : 6 channels
Channel positions : Front: L C R, Side: L R, LFE
Sampling rate : 48.0 KHz
Bit depth : 16 bits
Compression mode : Lossy
Stream size : 275 MiB (9%)
Title : Rus (MVO, BaiBako)
Language : Russian
Default : No
Forced : No
Audio #3
ID : 4
Format : AC-3
Format/Info : Audio Coding 3
Mode extension : CM (complete main)
Format settings, Endianness : Big
Codec ID : A_AC3
Duration : 1h 40mn
Bit rate mode : Constant
Bit rate : 384 Kbps
Channel(s) : 6 channels
Channel positions : Front: L C R, Side: L R, LFE
Sampling rate : 48.0 KHz
Bit depth : 16 bits
Compression mode : Lossy
Stream size : 275 MiB (9%)
Title : Eng (Original)
Language : English
Default : No
Forced : No
Text #1
ID : 5
Format : UTF-8
Codec ID : S_TEXT/UTF8
Codec ID/Info : UTF-8 Plain Text
Title : Rus (Forced, Blu-ray)
Language : Russian
Default : Yes
Forced : No
Text #2
ID : 6
Format : UTF-8
Codec ID : S_TEXT/UTF8
Codec ID/Info : UTF-8 Plain Text
Title : Rus (Full, Blu-ray)
Language : Russian
Default : No
Forced : No
Text #3
ID : 7
Format : UTF-8
Codec ID : S_TEXT/UTF8
Codec ID/Info : UTF-8 Plain Text
Title : Eng (Full)
Language : English
Default : No
Forced : No
Text #4
ID : 8
Format : UTF-8
Codec ID : S_TEXT/UTF8
Codec ID/Info : UTF-8 Plain Text
Title : Eng (SDH)
Language : English
Default : No
Forced : No
Text #5
ID : 9
Format : UTF-8
Codec ID : S_TEXT/UTF8
Codec ID/Info : UTF-8 Plain Text
Title : Eng (SDH-COLORED)
Language : English
Default : No
Forced : No

Скриншоты

Скачать

Скачать торрент!

Как скачивать? · Что такое торрент? · Рейтинг и ограничения

Сайт не распространяет и не хранит электронные версии произведений, а лишь предоставляет доступ к создаваемому пользователями каталогу ссылок на торрент-файлы, которые содержат только списки хеш-сумм

[Профиль] [ЛС]
Показать сообщения:    
Ответить на тему

Текущее время: Сегодня 00:18

Часовой пояс: GMT + 4



Вы не можете начинать темы
Вы не можете отвечать на сообщения
Вы не можете редактировать свои сообщения
Вы не можете удалять свои сообщения
Вы не можете голосовать в опросах
Вы не можете прикреплять файлы к сообщениям
Вы не можете скачивать файлы