Скакун / Попрыгун / Prancer (Джон Д. Хенкок / John D. Hancock) [1989, США, Канада, драма, семейный, HDTV 1080i] MVO (НТВ+) + VO + Sub Eng + Original Eng

Ответить на тему
 
Автор Сообщение

user ®

Стаж: 7 лет 7 месяцев

Сообщений: 20008

Пост Пост: #1 от 17-Окт-2013 02:10

[Цитировать]

Скакун / Попрыгун / Prancer
Страна: США, Канада
Студия: Cineplex-Odeon Films, Nelson Entertainment, Raffaella Productions
Жанр: драма, семейный
Год выпуска: 1989
Продолжительность: 01:38:50
Перевод 1: Профессиональный (многоголосый закадровый) НТВ+
Перевод 2: Одноголосый закадровый
Cубтитры: английские
Оригинальная аудиодорожка: английский
Режиссер: Джон Д. Хенкок / John D. Hancock
В ролях: Сэм Эллиотт / Sam Elliott/, Эби Вигода / Abe Vigoda /, Рутаня Элда / Rutanya Alda /, Кларис Личмен / Cloris Leachman/, Майкл Константин / Michael Constantine /, Ребекка Харрелл / Rebecca Harrel l/, Джон Duda / John Duda /, Эриана Ричардс / Ariana Richards /, Марк Ролстон / Mark Rolston /, Джонни Гэлеки / Johnny Galecki /
Описание: Восьмилетняя Джессика, дочь обедневшего фермера, все еще верит в Санта-Клауса. Поэтому когда она в лесу находит раненого оленя, у нее сразу появляется уверенность: это Попрыгун из повозки Санты, который повредил себе ногу, упав с рождественского плаката. Девочка решает спрятать оленя у себя в амбаре, чтобы вылечить и дождаться, когда за ним придет Санта-Клаус...

Доп. информация:
За одноголосый перевод спасибо группе его создателей (Marina, lehachuev, Stalk)
За оригинальную дорогу спасибо Гость
Тип релиза: HDTV 1080i
Контейнер: MKV
Видео: AVC 1920x1080 (16:9)) 25.0fps Bit rate 5963Kbps
Аудио 1: MP2 48.0 KHz 2ch. 192kbps rus
Аудио 2: AC3 48.0 KHz 2ch. 192kbps rus
Аудио 3: AC3 48.0 KHz 2ch. 192kbps eng

MediaInfo

Общее
Уникальный идентификатор : 170810923626271220379171266251462636892 (0x8080FCBD55D7748DAEBC461931FD755C)
Полное имя : E:\torrent\Skakun_HDTV1080i.mkv
Формат : Matroska
Версия формата : Version 4 / Version 2
Размер файла : 4,61 Гбайт
Продолжительность : 1 ч. 38 м.
Общий поток : 6672 Кбит/сек
Дата кодирования : UTC 2013-10-16 06:53:40
Программа кодирования : mkvmerge v6.4.1 ('Omega Point') built on Sep 16 2013 22:05:10
Библиотека кодирования : libebml v1.3.0 + libmatroska v1.4.1
Видео
Идентификатор : 1
Формат : AVC
Формат/Информация : Advanced Video Codec
Профиль формата : High@L4.0
Параметр CABAC формата : Да
Параметр ReFrames формата : 3 кадра
Параметр GOP формата : M=4, N=32
Идентификатор кодека : V_MPEG4/ISO/AVC
Продолжительность : 1 ч. 38 м.
Битрейт : 5963 Кбит/сек
Ширина : 1920 пикселей
Высота : 1080 пикселей
Соотношение сторон : 16:9
Режим частоты кадров : Постоянный
Частота кадров : 25,000 кадров/сек
Стандарт вещания : Component
Цветовое пространство : YUV
Субдискретизация насыщенности : 4:2:0
Битовая глубина : 8 бит
Тип развёртки : Чересстрочная
Порядок развёртки : Верхнее поле первое
Бит/(Пиксели*Кадры) : 0.115
Размер потока : 4,12 Гбайт (89%)
Заголовок : Skakun_HDTV 1080i
Default : Да
Forced : Нет
Основные цвета : BT.709
Характеристики трансфера : BT.709
Коэффициенты матрицы : BT.709
Аудио #1
Идентификатор : 2
Формат : MPEG Audio
Версия формата : Version 1
Профиль формата : Layer 2
Идентификатор кодека : A_MPEG/L2
Идентификатор кодека/Подсказка : MP2
Продолжительность : 1 ч. 38 м.
Вид битрейта : Постоянный
Битрейт : 192 Кбит/сек
Каналы : 2 канала
Частота : 48,0 КГц
Метод сжатия : С потерями
Размер потока : 136 Мбайт (3%)
Заголовок : Skakun_HDTV 1080i_MP2_MVO_NTV+
Язык : Russian
Default : Да
Forced : Нет
Аудио #2
Идентификатор : 3
Формат : AC-3
Формат/Информация : Audio Coding 3
Расширение режима : CM (complete main)
Параметр Endianness формата : Big
Идентификатор кодека : A_AC3
Продолжительность : 1 ч. 38 м.
Вид битрейта : Постоянный
Битрейт : 192 Кбит/сек
Каналы : 2 канала
Расположение каналов : Front: L R
Частота : 48,0 КГц
Битовая глубина : 16 бит
Метод сжатия : С потерями
Размер потока : 136 Мбайт (3%)
Заголовок : Skakun_HDTV 1080i_A3C_VO
Язык : Russian
Default : Нет
Forced : Нет
Аудио #3
Идентификатор : 4
Формат : AC-3
Формат/Информация : Audio Coding 3
Расширение режима : CM (complete main)
Параметр Endianness формата : Big
Идентификатор кодека : A_AC3
Продолжительность : 1 ч. 38 м.
Вид битрейта : Постоянный
Битрейт : 192 Кбит/сек
Каналы : 2 канала
Расположение каналов : Front: L R
Частота : 48,0 КГц
Битовая глубина : 16 бит
Метод сжатия : С потерями
Размер потока : 136 Мбайт (3%)
Заголовок : Skakun_HDTV 1080i_AC3_original eng
Язык : English
Default : Нет
Forced : Нет
Текст
Идентификатор : 5
Формат : UTF-8
Идентификатор кодека : S_TEXT/UTF8
Идентификатор кодека/Информация : UTF-8 Plain Text
Заголовок : Skakun_HDTV 1080i_subtitle eng
Язык : English
Default : Нет
Forced : Нет

Скриншот с названием фильма

Скриншоты


Скачать

Скачать торрент!

Как скачивать? · Что такое торрент? · Рейтинг и ограничения

Сайт не распространяет и не хранит электронные версии произведений, а лишь предоставляет доступ к создаваемому пользователями каталогу ссылок на торрент-файлы, которые содержат только списки хеш-сумм

[Профиль] [ЛС]
Показать сообщения:    
Ответить на тему

Текущее время: Сегодня 06:11

Часовой пояс: GMT + 4



Вы не можете начинать темы
Вы не можете отвечать на сообщения
Вы не можете редактировать свои сообщения
Вы не можете удалять свои сообщения
Вы не можете голосовать в опросах
Вы не можете прикреплять файлы к сообщениям
Вы не можете скачивать файлы