Вооруженное ограбление / Mains armees (Пьер Жоливе / Pierre Jolivet) [2012, Франция, триллер, драма, криминал, BDRip 720p] VO (М.Чадов) + Sub Rus + Original Fre

Ответить на тему
 
Автор Сообщение

user ®

Стаж: 7 лет 7 месяцев

Сообщений: 20008

Пост Пост: #1 от 17-Окт-2013 02:10

[Цитировать]

Вооруженное ограбление / Mains armees
Страна: Франция
Жанр: триллер, драма, криминал
Год выпуска: 2012
Продолжительность: 01:46:01
Перевод: Одноголосый закадровый М.Чадов
Cубтитры: русские
Оригинальная аудиодорожка: французский
Режиссер: Пьер Жоливе / Pierre Jolivet
В ролях: Рошди Зем, Лейла Бехти, Марк Лавуан, Николас Бридет, Николя Марье, Нина Мерисс, Эрик Буньон, Мэрилин Канто, Эдриан Жоливе, Сирил Гуи
Описание: Комиссар полиции Лукас Скали и его дочь Майя - давно уже чужие люди. Но они оба - полицейские, и вынуждены вместе участвовать в расследовании дела, связанного с сербской мафией. Во время расследования вновь появляется надежда обрести, казалось бы, уже навсегда потерянную кровную связь...
Спонсор озвучки : будулайроманов

Сэмпл: http://multi-up.com/913821
Тип релиза: BDRip 720p
Контейнер: MKV
Видео: MPEG-4 AVC, 1280x544, 4400 кбит/сек, 24.00 fps
Аудио: 48 kHz, DTS, 3/2 (L,C,R,l,r) + LFE ch, ~1510.00 kbps avg VO М.Чадов
Аудио 2: 48 kHz, DTS, 3/2 (L,C,R,l,r) + LFE ch, ~1510.00 kbps avg original
Формат субтитров: softsub (SRT)

x264

x264 [info]: frame I:1239 Avg QP:14.37 size:105543
x264 [info]: frame P:30811 Avg QP:17.79 size: 38668
x264 [info]: frame B:120615 Avg QP:18.89 size: 19012

MediaInfo

ВООРУЖЕННОЕ ОГРАБЛЕНИЕ (VO+SUB).2012.720p x264.DTS dxva-lord_i_74.mkv
Формат : Matroska
Версия формата : Version 2
Размер файла : 5,61 Гбайт
Продолжительность : 1 ч. 46 м.
Общий поток : 7570 Кбит/сек
Дата кодирования : UTC 2013-10-16 14:37:04
Программа кодирования : mkvmerge v5.0.1 ('Es ist Sommer') built on Oct 9 2011 11:55:43
Библиотека кодирования : libebml v1.2.2 + libmatroska v1.3.0
Attachment : Yes
Видео
Идентификатор : 1
Формат : AVC
Формат/Информация : Advanced Video Codec
Профиль формата : High@L4.1
Параметр CABAC формата : Да
Параметр ReFrames формата : 6 кадров
Идентификатор кодека : V_MPEG4/ISO/AVC
Продолжительность : 1 ч. 46 м.
Битрейт : 4400 Кбит/сек
Ширина : 1280 пикс.
Высота : 544 пикс.
Соотношение сторон : 2,35:1
Частота кадров : 24,000 кадр/сек
Цветовое пространство : YUV
Подвыборка цветности : 4:2:0
Битовая глубина : 8 бит
Тип развёртки : Прогрессивная
Бит/(Пиксели*Кадры) : 0.263
Размер потока : 3,26 Гбайт (58%)
Заголовок : Mains Armes 720p x264 VO DTS dxva-HDZ
Библиотека кодирования : x264 core 128 r2216kMod 198a7ea
Настройки программы : cabac=1 / ref=6 / deblock=1:-3:-3 / analyse=0x3:0x113 / me=umh / subme=10 / psy=1 / psy_rd=1.00:0.40 / mixed_ref=1 / me_range=64 / chroma_me=1 / trellis=2 / 8x8dct=1 / cqm=0 / deadzone=6,6 / fast_pskip=0 / chroma_qp_offset=-4 / threads=8 / lookahead_threads=1 / sliced_threads=0 / nr=0 / decimate=0 / interlaced=0 / bluray_compat=0 / constrained_intra=0 / bframes=6 / b_pyramid=2 / b_adapt=2 / b_bias=0 / direct=1 / weightb=1 / open_gop=1 / weightp=2 / keyint=250 / keyint_min=24 / scenecut=40 / intra_refresh=0 / rc_lookahead=250 / rc=crf / mbtree=1 / crf=18.5000 / qcomp=0.75 / qpmin=0 / qpmax=69 / qpstep=4 / vbv_maxrate=50000 / vbv_bufsize=50000 / crf_max=0.0 / nal_hrd=none / ip_ratio=1.40 / aq=3:0.80
Язык : English
Аудио #1
Идентификатор : 2
Формат : DTS
Формат/Информация : Digital Theater Systems
Идентификатор кодека : A_DTS
Продолжительность : 1 ч. 46 м.
Вид битрейта : Постоянный
Битрейт : 1510 Кбит/сек
Каналы : 6 каналов
Расположение каналов : Front: L C R, Side: L R, LFE
Частота : 48,0 КГц
Битовая глубина : 24 бит
Метод сжатия : С потерями
Размер потока : 1,12 Гбайт (20%)
Заголовок : VO М.Чадов по переводу kon2011
Язык : Russian
Аудио #2
Идентификатор : 3
Формат : DTS
Формат/Информация : Digital Theater Systems
Идентификатор кодека : A_DTS
Продолжительность : 1 ч. 46 м.
Вид битрейта : Постоянный
Битрейт : 1510 Кбит/сек
Каналы : 6 каналов
Расположение каналов : Front: L C R, Side: L R, LFE
Частота : 48,0 КГц
Битовая глубина : 24 бит
Метод сжатия : С потерями
Размер потока : 1,12 Гбайт (20%)
Язык : French
Текст
Идентификатор : 4
Формат : UTF-8
Идентификатор кодека : S_TEXT/UTF8
Идентификатор кодека/Информация : UTF-8 Plain Text
Заголовок : Sub kon2011
Язык : Russian
Меню
00:00:00.000 : en:00:00:00.000
00:07:43.208 : en:00:07:43.208
00:15:17.625 : en:00:15:17.625
00:24:59.000 : en:00:24:59.000
00:33:22.291 : en:00:33:22.291
00:42:04.791 : en:00:42:04.791
00:51:41.375 : en:00:51:41.375
01:00:25.791 : en:01:00:25.791
01:10:10.000 : en:01:10:10.000
01:20:28.375 : en:01:20:28.375
01:31:33.541 : en:01:31:33.541
01:42:36.000 : en:01:42:36.000

Скриншоты

Скачать

Скачать торрент!

Как скачивать? · Что такое торрент? · Рейтинг и ограничения

Сайт не распространяет и не хранит электронные версии произведений, а лишь предоставляет доступ к создаваемому пользователями каталогу ссылок на торрент-файлы, которые содержат только списки хеш-сумм

[Профиль] [ЛС]
Показать сообщения:    
Ответить на тему

Текущее время: Сегодня 06:27

Часовой пояс: GMT + 4



Вы не можете начинать темы
Вы не можете отвечать на сообщения
Вы не можете редактировать свои сообщения
Вы не можете удалять свои сообщения
Вы не можете голосовать в опросах
Вы не можете прикреплять файлы к сообщениям
Вы не можете скачивать файлы