Потапов, к доске! (Александр Орлов) [2007 г., комедия, семейный, DVDRip]

Ответить на тему
 
Автор Сообщение

user ®

Стаж: 7 лет 7 месяцев

Сообщений: 20008

Пост Пост: #1 от 17-Окт-2013 02:10

[Цитировать]

-Потапов, к доске!--Год выпуска: 2007
Жанр: комедия, семейный
Продолжительность: 01:33:31--Режиссер: Александр Орлов--В ролях:
Александр Олейников (Женька Москвичев), Виталий Кулаков (Леша Потапов), Мария Фомина (Лена Синицына), Валерия Хардина (Майка Свиридова), Лия Ахеджакова, Максим Коновалов, Алла Будницкая, Дарья Дроздовская, Алексей Чернюгов, Даниил Иванов, Андрей Егоров
--Описание:
История о современных школьниках, о неразлучной дружбе, первой неразделенной любви, бесконечной фантазии и умопомрачительных приключениях. Стремление главного героя Женьки во чтобы-то ни стало добиться симпатии Лены Синицкой, самой красивой девочки школы, рождает фейерверк комедийных событий, в водовороте которых оказывается вся школа, друзья и педагоги…
-Доп. информация:-
Сэмпл Рип совместим с бытовыми DVD-проигрывателями. --Качество видео: DVDRip
Формат видео: AVI
Видео кодек: XviD
Аудио кодек: MP3
Видео: XviD 73; 688x448 (3:2); ~1 837 kbps; 25.000 fps; 0.238 bpp
Аудио: 48 kHz; AC3 Dolby Digital; 5.1 ch; 384.00 kbps-

MediaInfo

General
Complete name : \Potapov_k_doske_(2007).DVDRip.XviD.AC3_[All.Films][RG].avi
Format : AVI
Format/Info : Audio Video Interleave
File size : 1.46 GiB
Duration : 1h 33mn
Overall bit rate : 2 230 Kbps
Movie name : Потапов, к доске! (2007) DVDRip [All.Films][RG]
Director :
Writing application : VirtualDubMod 1.5.10.3 | www.virtualdub-fr.org || (build 2550/release)
Video
ID : 0
Format : MPEG-4 Visual
Format profile : Advanced Simple@L5
Format settings, BVOP : 2
Format settings, QPel : No
Format settings, GMC : No warppoints
Format settings, Matrix : Custom
Codec ID : XVID
Codec ID/Hint : XviD
Duration : 1h 33mn
Bit rate : 1 837 Kbps
Width : 688 pixels
Height : 448 pixels
Display aspect ratio : 3:2
Frame rate : 25.000 fps
Color space : YUV
Chroma subsampling : 4:2:0
Bit depth : 8 bits
Scan type : Progressive
Compression mode : Lossy
Bits/(Pixel*Frame) : 0.238
Stream size : 1.20 GiB (82%)
Writing library : XviD 73
Audio
ID : 1
Format : AC-3
Format/Info : Audio Coding 3
Mode extension : CM (complete main)
Format settings, Endianness : Big
Codec ID : 2000
Duration : 1h 33mn
Bit rate mode : Constant
Bit rate : 384 Kbps
Channel count : 6 channels
Channel positions : Front: L C R, Side: L R, LFE
Sampling rate : 48.0 KHz
Bit depth : 16 bits
Compression mode : Lossy
Stream size : 257 MiB (17%)
Alignment : Split accross interleaves
Interleave, duration : 40 ms (1.00 video frame)
Interleave, preload duration : 500 ms

Скриншоты


Скачать

Скачать торрент!

Как скачивать? · Что такое торрент? · Рейтинг и ограничения

Сайт не распространяет и не хранит электронные версии произведений, а лишь предоставляет доступ к создаваемому пользователями каталогу ссылок на торрент-файлы, которые содержат только списки хеш-сумм

[Профиль] [ЛС]
Показать сообщения:    
Ответить на тему

Текущее время: Сегодня 10:07

Часовой пояс: GMT + 4



Вы не можете начинать темы
Вы не можете отвечать на сообщения
Вы не можете редактировать свои сообщения
Вы не можете удалять свои сообщения
Вы не можете голосовать в опросах
Вы не можете прикреплять файлы к сообщениям
Вы не можете скачивать файлы