Похождения императора 2: Приключения Кронка / Kronk\'s New Groove (Сауль Эндрю Блинкофф / Saul Andrew Blinkoff, Эллиот М. Бур / Elliot M. Bour, Робин Стил /) [2005, комедия, семейный, BDRip-AVC] Dub + Rus Sub

Ответить на тему
 
Автор Сообщение

user ®

Стаж: 13 лет

Сообщений: 15041

Пост Пост: #1 от 16-Окт-2013 21:20

[Цитировать]

Похождения императора 2: Приключения Кронка / Kronk's New Groove
Страна: США
Жанр: комедия, семейный
Продолжительность: 01:15:00
Год выпуска: 2005
Перевод: Профессиональный (дублированный)
Русские субтитры: есть
Режиссёр: Сауль Эндрю Блинкофф / Saul Andrew Blinkoff, Эллиот М. Бур / Elliot M. Bour, Робин Стил /
Описание: Не успели закончиться приключения Пачи и Императора Куско, как симпатяга Кронк, бывший слуга Измы, начал новую счастливую жизнь в качестве шеф-повара в своей собственной закусочной. Однако приключения начинаются с получением лама-граммы, согласно которой, его отец собирается прибыть с визитом.
Но, не успев сообразить что происходит, Кронк умудряется состряпать уйму неприятностей, связавшись с хитрой колдуньей Измой, чтобы с помощью волшебства осветить себя ореолом успеха и процветания во время визита Папы.
После целого ряда ошибок и грандиозного сырного взрыва в ресторане, проблемы кажутся неразрешимыми. Но с помощью друзей — как новых, так и старых — Кронк узнает, что любые трудности в жизни преодолимы.
Семпл: http://multi-up.com/913761
Качество: BDRip-AVC
Формат: MKV
Видео: 1152x648 (16:9), 23.976 fps, AVC, ~1870 Kbps, 0.104 bits/pixel
Аудио 1: Russian, 48.0 KHz, AC3, 6 ch, 448 Kbps
Аудио 2: English, 48.0 KHz, AC3, 6 ch, 448 Kbps
Субтитры: русские, английские

Log

x264.exe: --pass 2 --bitrate 1870 --preset medium --ref 9 --deblock -1:-1 --merange 48 --bframes 8 --direct auto --b-adapt 2 --trellis 2 --no-fast-pskip --psy-rd 1.00:0.10 --partitions all --subme 11 --me umh --rc-lookahead 50 --stats "D:\Temp\0263.log" --sar 1:1 --output "D:\Temp\0263.264" "D:\Temp\0263.avs"
avs [info]: 1152x648p 1:1 @ 2500000/104271 fps (cfr)
x264 [info]: using SAR=1/1
x264 [info]: using cpu capabilities: MMX2 SSE2Fast SSEMisalign LZCNT
x264 [info]: profile High, level 4.0
Failed to open D:\torrent\EMPERORS_AND_KRONKS_NEW_GROOVE_BD_EUR\BDMV\CLIPINF\00043.clpi
Failed to open D:\torrent\EMPERORS_AND_KRONKS_NEW_GROOVE_BD_EUR\BDMV\BACKUP/CLIPINF\00043.clpi
x264 [info]: frame I:1205 Avg QP:13.94 size: 88249
x264 [info]: frame P:30043 Avg QP:18.81 size: 18917
x264 [info]: frame B:76657 Avg QP:20.98 size: 4924
x264 [info]: consecutive B-frames: 4.9% 5.3% 14.3% 45.2% 17.7% 6.0% 2.1% 2.6% 1.9%
x264 [info]: mb I I16..4: 14.7% 50.2% 35.1%
x264 [info]: mb P I16..4: 2.2% 2.8% 2.6% P16..4: 30.5% 26.7% 8.0% 2.6% 0.6% skip:24.0%
x264 [info]: mb B I16..4: 0.3% 0.2% 0.2% B16..8: 28.2% 8.6% 1.9% direct: 1.1% skip:59.4% L0:48.4% L1:47.7% BI: 3.9%
x264 [info]: 8x8 transform intra:38.9% inter:27.7%
x264 [info]: direct mvs spatial:91.0% temporal:9.0%
x264 [info]: coded y,uvDC,uvAC intra: 54.4% 66.0% 51.8% inter: 5.4% 6.4% 3.2%
x264 [info]: i16 v,h,dc,p: 47% 18% 7% 28%
x264 [info]: i8 v,h,dc,ddl,ddr,vr,hd,vl,hu: 8% 8% 14% 10% 12% 10% 12% 11% 15%
x264 [info]: i4 v,h,dc,ddl,ddr,vr,hd,vl,hu: 13% 12% 16% 10% 11% 9% 10% 8% 12%
x264 [info]: i8c dc,h,v,p: 35% 39% 18% 8%
x264 [info]: Weighted P-Frames: Y:1.5% UV:1.3%
x264 [info]: ref P L0: 46.1% 2.8% 18.8% 9.0% 6.4% 6.0% 4.7% 2.9% 2.5% 0.7% 0.0%
x264 [info]: ref B L0: 61.3% 14.4% 10.5% 4.4% 3.8% 3.0% 2.0% 0.7%
x264 [info]: ref B L1: 88.5% 11.5%
x264 [info]: kb/s:1870.29

Подробные технические данные

GeneralUnique ID : 184485692294774291609646975439024827352 (0x8ACAA6E3956CC6C1A63F7517603E2BD8)Complete name : D:\Похождения императора 2\Kronk's New Groove.mkvFormat : MatroskaFormat version : Version 4 / Version 2File size : 1.45 GiBDuration : 1h 15mnOverall bit rate : 2 769 KbpsEncoded date : UTC 2013-10-16 13:48:34Writing application : mkvmerge v6.4.1 ('Omega Point') built on Sep 16 2013 22:05:10Writing library : libebml v1.3.0 + libmatroska v1.4.1
VideoID : 1Format : AVCFormat/Info : Advanced Video CodecFormat profile : High@L4.0Format settings, CABAC : YesFormat settings, ReFrames : 9 framesCodec ID : V_MPEG4/ISO/AVCDuration : 1h 15mnBit rate : 1 870 KbpsWidth : 1 152 pixelsHeight : 648 pixelsDisplay aspect ratio : 16:9Frame rate mode : ConstantFrame rate : 23.976 fpsColor space : YUVChroma subsampling : 4:2:0Bit depth : 8 bitsScan type : ProgressiveBits/(Pixel*Frame) : 0.104Stream size : 975 MiB (66%)Writing library : x264 core 133 r2334 a3ac64bEncoding settings : cabac=1 / ref=9 / deblock=1:-1:-1 / analyse=0x3:0x133 / me=umh / subme=11 / psy=1 / psy_rd=1.00:0.10 / mixed_ref=1 / me_range=48 / chroma_me=1 / trellis=2 / 8x8dct=1 / cqm=0 / deadzone=21,11 / fast_pskip=0 / chroma_qp_offset=-3 / threads=6 / lookahead_threads=1 / sliced_threads=0 / nr=0 / decimate=1 / interlaced=0 / bluray_compat=0 / constrained_intra=0 / bframes=8 / b_pyramid=2 / b_adapt=2 / b_bias=0 / direct=3 / weightb=1 / open_gop=0 / weightp=2 / keyint=250 / keyint_min=23 / scenecut=40 / intra_refresh=0 / rc_lookahead=50 / rc=2pass / mbtree=1 / bitrate=1870 / ratetol=1.0 / qcomp=0.60 / qpmin=0 / qpmax=69 / qpstep=4 / cplxblur=20.0 / qblur=0.5 / ip_ratio=1.40 / aq=1:1.00Default : YesForced : No
Audio #1ID : 2Format : AC-3Format/Info : Audio Coding 3Mode extension : CM (complete main)Format settings, Endianness : BigCodec ID : A_AC3Duration : 1h 15mnBit rate mode : ConstantBit rate : 448 KbpsChannel count : 6 channelsChannel positions : Front: L C R, Side: L R, LFESampling rate : 48.0 KHzBit depth : 16 bitsCompression mode : LossyStream size : 240 MiB (16%)Language : RussianDefault : YesForced : No
Audio #2ID : 3Format : AC-3Format/Info : Audio Coding 3Mode extension : CM (complete main)Format settings, Endianness : BigCodec ID : A_AC3Duration : 1h 15mnBit rate mode : ConstantBit rate : 448 KbpsChannel count : 6 channelsChannel positions : Front: L C R, Side: L R, LFESampling rate : 48.0 KHzBit depth : 16 bitsCompression mode : LossyStream size : 240 MiB (16%)Language : EnglishDefault : NoForced : No
Text #1ID : 4Format : UTF-8Codec ID : S_TEXT/UTF8Codec ID/Info : UTF-8 Plain TextLanguage : RussianDefault : NoForced : No
Text #2ID : 5Format : UTF-8Codec ID : S_TEXT/UTF8Codec ID/Info : UTF-8 Plain TextLanguage : EnglishDefault : NoForced : No

Скриншоты

Скачать

Скачать торрент! Похождения императора 2: Приключения Кронка / Kronk\'s New Groove (Сауль Эндрю Блинкофф / Saul Andrew Blinkoff, Эллиот М. Бур / Elliot M. Bour, Робин Стил /) [2005, комедия, семейный, BDRip-AVC] Dub + Rus Sub

Как скачивать? · Что такое торрент? · Рейтинг и ограничения

Сайт не распространяет и не хранит электронные версии произведений, а лишь предоставляет доступ к создаваемому пользователями каталогу ссылок на торрент-файлы, которые содержат только списки хеш-сумм

[Профиль] [ЛС]
Показать сообщения:    
Ответить на тему

Текущее время: Сегодня 10:10

Часовой пояс: GMT + 4



Вы не можете начинать темы
Вы не можете отвечать на сообщения
Вы не можете редактировать свои сообщения
Вы не можете удалять свои сообщения
Вы не можете голосовать в опросах
Вы не можете прикреплять файлы к сообщениям
Вы не можете скачивать файлы