Одиночка (Сергей Щербин) [2010, Боевик, криминал, детектив, DVDRip]

Ответить на тему
 
Автор Сообщение

user ®

Стаж: 7 лет 7 месяцев

Сообщений: 20008

Пост Пост: #1 от 16-Окт-2013 21:20

[Цитировать]

Одиночка
«Охота на бывших спецагентов обходится дорого»
- Год выпуска: 2010
Жанр: боевик, криминал, детектив
Продолжительность: 01:39:45-Режиссёр:
Сергей Щербин-В ролях:
Данила Козловский (Громов), Ян Цапник (Добров), Андрей Кузнецов (Фролов), Сергей Кудрявцев (Самсонов), Яков Шамшин (Лысов), Мария Капустинская (Таня), Татьяна Тарасова (Мария Семеновна), Екатерина Карманова (Света), Наталья Третьякова (Марина), Валентина Савчук (Рита)-Описание:
Вооруженный бандит, лицо которого скрыто под маской, совершает налет на сберкассу. Во время нападения погибает молодая женщина, жена оперуполномоченного Фролова. Представителям «органов» достаточно быстро удается выйти на след бандита — неизвестный, позвонивший в отделение милиции, дает операм наводку на дачу, где скрывается преступник. Сотрудники милиции проводят операцию, в ходе которой задержан некий Андрей Громов, который на самом деле является сотрудником спец. служб. Вина его полностью доказана и он получает 12 лет колонии строгого режима… Под видом бандита он должен был попасть в тюрьму, чтобы обзавестись связями в криминальном мире. А нападение на сберкассу послужило отличным поводом к этому. Громов был уверен, что спустя два-три года он выйдет на свободу. Но про него забыли. И вот Громов на свободе. Он хочет только одного — отомстить тем, кто оставил его на зоне. За вышедшим из тюрьмы агентом начинается охота. Но ликвидировать Громова сложно — он бывший спецназовец, кроме того, годы, проведенные в тюрьме, не прошли для него даром…-| КиноПоиск |-Качество: DVDRip
Формат: AVI
Видео: 704x384 (1.83:1), 25 fps, XviD build 73 ~1634 kbps avg, 0.24 bit/pixel
Аудио: 48 kHz, AC3 Dolby Digital, 3/2 (L,C,R,l,r) + LFE ch, ~448.00 kbps avg
-

Скриншоты

MediaInfo

General
Complete name                            : D:\Odino4ka_2010_DVDRip_by_Dalemake.avi
Format                                   : AVI
Format/Info                              : Audio Video Interleave
File size                                : 1.46 GiB
Duration                                 : 1h 39mn
Overall bit rate                         : 2 092 Kbps
Writing application                      : VirtualDubMod 1.5.10.3 | www.virtualdub-fr.org || (build 2550/release)
Writing library                          : VirtualDubMod build 2550/release
Video
ID                                       : 0
Format                                   : MPEG-4 Visual
Format profile                           : Advanced Simple@L5
Format settings, BVOP                    : 1
Format settings, QPel                    : No
Format settings, GMC                     : No warppoints
Format settings, Matrix                  : Custom
Codec ID                                 : XVID
Codec ID/Hint                            : XviD
Duration                                 : 1h 39mn
Bit rate                                 : 1 635 Kbps
Width                                    : 704 pixels
Height                                   : 384 pixels
Display aspect ratio                     : 1.85:1
Frame rate                               : 25.000 fps
Color space                              : YUV
Chroma subsampling                       : 4:2:0
Bit depth                                : 8 bits
Scan type                                : Progressive
Compression mode                         : Lossy
Bits/(Pixel*Frame)                       : 0.242
Stream size                              : 1.14 GiB (78%)
Writing library                          : XviD 73
Audio
ID                                       : 1
Format                                   : AC-3
Format/Info                              : Audio Coding 3
Mode extension                           : CM (complete main)
Format settings, Endianness              : Big
Codec ID                                 : 2000
Duration                                 : 1h 39mn
Bit rate mode                            : Constant
Bit rate                                 : 448 Kbps
Channel(s)                               : 6 channels
Channel positions                        : Front: L C R, Side: L R, LFE
Sampling rate                            : 48.0 KHz
Bit depth                                : 16 bits
Compression mode                         : Lossy
Stream size                              : 320 MiB (21%)
Alignment                                : Split accross interleaves
Interleave, duration                     : 40 ms (1.00 video frame)
Interleave, preload duration             : 500 ms
Скачать

Скачать торрент!

Как скачивать? · Что такое торрент? · Рейтинг и ограничения

Сайт не распространяет и не хранит электронные версии произведений, а лишь предоставляет доступ к создаваемому пользователями каталогу ссылок на торрент-файлы, которые содержат только списки хеш-сумм

[Профиль] [ЛС]
Показать сообщения:    
Ответить на тему

Текущее время: Сегодня 22:26

Часовой пояс: GMT + 4



Вы не можете начинать темы
Вы не можете отвечать на сообщения
Вы не можете редактировать свои сообщения
Вы не можете удалять свои сообщения
Вы не можете голосовать в опросах
Вы не можете прикреплять файлы к сообщениям
Вы не можете скачивать файлы