Долой немецкое иго! (режиссёр не установлен) [1914, сатирическая комедия, DVDRip]

Ответить на тему
 
Автор Сообщение

user ®

Стаж: 7 лет 7 месяцев

Сообщений: 20008

Пост Пост: #1 от 16-Окт-2013 18:10

[Цитировать]

Долой немецкое иго! / фрагмент
Жанр: сатирическая комедия
Год выпуска: 1914
Продолжительность: 0:01:46
Режиссёр: не установлен
В ролях: неизвестно
Описание: В картине "Долой немецкое иго!" Вильгельм и его генералитет были показаны в обстановке гостиной буржуа средней зажиточности, которая изображала не то дворцовое помещение, не то кабинет генерального штаба. Актёры были тщательно (а исполнитель роли Вильгельма - со сходством!) загримированы и одеты в немецкие форменные мундиры. Казалось бы, что натуралистическая трактовка среды и внешности персонажей предопределяет и естественность поведения героев фильма. Но в фильме Вильгельм почему-то скакал на палочке, как ребёнок, или вырезывал ножницами куски из карты Европы, что должно было разоблачать его экспансионистские планы.
(С. Гинзбург "Кинематография дореволюционной России")
Доп. информация: Долой немецкое иго! ("Позор Германии").
Аллегорическая картина, 700 м, Бр. Пате (Моск. отд.) и контора "Глобус". Выпуск 30.IX.1914.
Разрозненные фрагменты.
ГФФ.

(из каталога сохранившихся фильмов, раздел "Фильмы с предположительными названиями или атрибутированные условно")
Качество видео: неизвестно
Формат видео: AVI
Видео: 320x240 (1.33:1), 25 fps, Microsoft MPEG-4 Video Codec V2 ~1844 kbps avg, 0.96 bit/pixel
Аудио: 48 kHz, MPEG Layer 3, 2 ch, ~64.00 kbps avg

MediaInfo

General
Complete name : C:\videooutput\Долой немецкое иго!.avi
Format : AVI
Format/Info : Audio Video Interleave
File size : 23.4 MiB
Duration : 1mn 46s
Overall bit rate : 1 850 Kbps
Writing application : VirtualDubMod 1.5.10.2 (build 2540/release)
Writing library : VirtualDubMod build 2540/release
Video
ID : 0
Format : MPEG-4 Visual
Codec ID : MP42
Codec ID/Info : Microsoft MPEG-4 v2 (pre-standard)
Codec ID/Hint : Microsoft
Duration : 1mn 46s
Bit rate : 1 844 Kbps
Width : 320 pixels
Height : 240 pixels
Display aspect ratio : 4:3
Frame rate : 25.000 fps
Compression mode : Lossy
Bits/(Pixel*Frame) : 0.960
Stream size : 23.4 MiB (100%)
Audio
ID : 1
Format : MPEG Audio
Codec ID : 55
Codec ID/Hint : MP3
Duration : 1mn 46s
Bit rate : 64.0 Kbps
Channel(s) : 2 channels
Sampling rate : 48.0 KHz
Compression mode : Lossy
Stream size : 830 KiB (3%)
Alignment : Aligned on interleaves

Скриншоты

Скачать

Скачать торрент!

Как скачивать? · Что такое торрент? · Рейтинг и ограничения

Сайт не распространяет и не хранит электронные версии произведений, а лишь предоставляет доступ к создаваемому пользователями каталогу ссылок на торрент-файлы, которые содержат только списки хеш-сумм

[Профиль] [ЛС]
Показать сообщения:    
Ответить на тему

Текущее время: Сегодня 22:33

Часовой пояс: GMT + 4



Вы не можете начинать темы
Вы не можете отвечать на сообщения
Вы не можете редактировать свои сообщения
Вы не можете удалять свои сообщения
Вы не можете голосовать в опросах
Вы не можете прикреплять файлы к сообщениям
Вы не можете скачивать файлы