Все собаки попадают в рай 2 / Все псы попадают в рай 2 / All Dogs Go to Heaven 2 (Ларри Лекер / Larry Leker, Пол Сабелла / Paul Sabella) [1996, анимация, комедия, семейный, BDRip] AVO (Павел Санаев)

Ответить на тему
 
Автор Сообщение

user ®

Стаж: 13 лет

Сообщений: 15041

Пост Пост: #1 от 16-Окт-2013 15:00

[Цитировать]

Все собаки попадают в рай 2 / Все псы попадают в рай 2 / All Dogs Go to Heaven 2- Страна: США, MGM
Жанр: анимация, комедия, семейный
Продолжительность: 01:22:48
Год выпуска: 1996
Перевод: Авторский (одноголосый закадровый) - Павел Санаев
Русские субтитры: нет-Режиссёр: Ларри Лекер / Larry Leker, Пол Сабелла / Paul Sabella
Роли озвучивали: Эрнест Боргнайн, Биби Нойуэрт, Чарли Шин, Хэмилтон Кэмп, Стив Мэккалл, Дэн Кастелланета, Дом ДеЛуис, Тони Джей, Джим Каммингс, Уоллес Шоун-Описание: Все собаки могут попасть в рай… а некоторые счастливчики — даже вернуться обратно на землю. Именно это и случается, когда озорной кудряшка Чарли Баркин решает разыскать украденный из рая Волшебный Рожок. Предвкушая возможность поразвлечься, Чарли приглашает с собой своего приятеля Итчи. Путешествие начинается!
Не успев опомниться, друзья попадают в беду, но на помощь им приходит добрый мальчишка, убежавший из дома вместе со своей собакой — красавицей ирландским сеттером.
Но времени, чтобы вернуть драгоценный Рожок, остается все меньше и меньше, поэтому Чарли надо спешить! Ему предстоит испытать себя в схватке со злодеями и преодолеть множество препятствий на обратном пути в рай!-Доп. информация: Выкладываю очередной раритет в хорошем качестве звука. Прошерстила все раздачи на трекере в поисках авторского перевода на эту часть и везде один и тот-же перевод убитого качества. Конечно спасибо и за это, но.. Полезла цифровать свои кассеты и о чудо, у меня такой-же перевод но в разы лучше и качественнее. Перевод не подвергала никакой обработке, просто свела к уже готовому рипу с BD. Смотрите и слушайте с другим качеством звука этот замечательный мультфильм.-За "Видео-исходник" большое спасибо [url=http://***/forum/profile.php?mode=viewprofile&u=5804901]kingsize87[/url]-Семпл (1 минута, 17МВ)-Для сомневающихся в "Качественности перевода" выкладываю сэмплы сравнения дорог (моей и той что на трекере везде).
All Dogs Go to Heaven-2_AVO_Sanaev-MaDrive
All Dogs Go to Heaven-2_AVO_Sanaev-Home_Video-Качество: BDRip
Формат: AVI
Видео: 704x384 (1.83:1), 23,976 fps, XviD build 62 ~1924 kbps avg, 0.30 bit/pixel
Аудио: 48 kHz, AC3 Dolby Digital, 2/0 (L,R), ~384.00 kbps avg
Субтитры: отсутствуют

Подробные технические данные

GeneralComplete name : E:\movies\All_Dogs_Go_to_Heaven-2_AVO_Sanaev_BDRip.aviFormat : AVIFormat/Info : Audio Video InterleaveFile size : 1.34 GiBDuration : 1h 22mnOverall bit rate : 2 318 KbpsMovie name : Все псы попадают в рай 2 / All Dogs Go To Heaven 2 (1996) BDRipDirector : kingsize87 (Blu-ray Remux)Writing application : VirtualDubMod 1.5.10.1 (build 2366/release)Writing library : VirtualDubMod build 2366/releaseCopyright : HQCLUB (http:// СПАМ)Comment : 17.05.2011
VideoID : 0Format : MPEG-4 VisualFormat profile : Advanced Simple@L5Format settings, BVOP : 1Format settings, QPel : NoFormat settings, GMC : No warppointsFormat settings, Matrix : CustomCodec ID : XVIDCodec ID/Hint : XviDDuration : 1h 22mnBit rate : 1 925 KbpsWidth : 704 pixelsHeight : 384 pixelsDisplay aspect ratio : 16:9Frame rate : 23.976 fpsColor space : YUVChroma subsampling : 4:2:0Bit depth : 8 bitsScan type : ProgressiveCompression mode : LossyBits/(Pixel*Frame) : 0.297Stream size : 1.11 GiB (83%)Writing library : XviD 62
AudioID : 1Format : AC-3Format/Info : Audio Coding 3Mode extension : CM (complete main)Codec ID : 2000Duration : 1h 22mnBit rate mode : ConstantBit rate : 384 KbpsChannel(s) : 2 channelsChannel positions : Front: L RSampling rate : 48.0 KHzBit depth : 16 bitsCompression mode : LossyStream size : 227 MiB (17%)Alignment : Split accross interleavesInterleave, duration : 42 ms (1.00 video frame)Interleave, preload duration : 500 msTitle : RUS AVO Sanaev

Скриншоты

Скачать

Скачать торрент! Все собаки попадают в рай 2 / Все псы попадают в рай 2 / All Dogs Go to Heaven 2 (Ларри Лекер / Larry Leker, Пол Сабелла / Paul Sabella) [1996, анимация, комедия, семейный, BDRip] AVO (Павел Санаев)

Как скачивать? · Что такое торрент? · Рейтинг и ограничения

Сайт не распространяет и не хранит электронные версии произведений, а лишь предоставляет доступ к создаваемому пользователями каталогу ссылок на торрент-файлы, которые содержат только списки хеш-сумм

[Профиль] [ЛС]
Показать сообщения:    
Ответить на тему

Текущее время: Сегодня 11:31

Часовой пояс: GMT + 4



Вы не можете начинать темы
Вы не можете отвечать на сообщения
Вы не можете редактировать свои сообщения
Вы не можете удалять свои сообщения
Вы не можете голосовать в опросах
Вы не можете прикреплять файлы к сообщениям
Вы не можете скачивать файлы