Несовместимая парочка / The Unmatchable Match (Паркман Вонг / Parkman Wong) [1989 г., боевик, комедия, DVDRip] VO

Ответить на тему
 
Автор Сообщение

user ®

Стаж: 13 лет

Сообщений: 15071

Пост Пост: #1 от 16-Окт-2013 04:00

[Цитировать]

Несовместимая парочка / The Unmatchable Match Год выпуска: 1989
Страна: Гонконг
Жанр: боевик, комедия
Продолжительность: 1:34:15
Перевод: Одноголосый закадровый - Акира
Субтитры: Нет
Режиссер: Паркман Вонг / Parkman Wong
В ролях: Стивен Чоу, Майкл Чан, Вивиан Чоу, Рикки Йи, Шинг Фуй-Он, Дэнни Ли
Описание:В Гонконге происходит жестокий вооруженный налет на машину, перевозящую бриллианты, в результате которого три человека погибает, а четверо получают ранения. Ответственен за это злобный гангстер Гатс (Шинг Фуй-Он) со своей бандой, и теперь он хочет сбыть драгоценности через посредника, Фея (Майкл Чан). Однако сделку срывает сам Гатс, решивший оставить себе и деньги, и бриллианты, но так складываются обстоятельства, что бриллианты остаются у Фея. Его почти сразу же ловит полиция, приставляя к нему полицейского под прикрытием Чеунга Лона (Стивен Чоу), который, втеревшись в доверие к Фею, должен выяснить, где спрятаны драгоценности. Однако Лон и Фей становятся друзьями, и основная их задача теперь - выжить под огнем охотящегося на них Гатса.
Семпл
Качество: DVDRip
Формат: AVI
Видео кодек: XviD
Аудио кодек: AC3
Видео: 640 x 352 (1.818) , 29.970 fps, XviD MPEG-4, 1678 Кбит/сек
Аудио: #1 (Russian):AC-3 , 192 Кбит/сек , 2 канала, 48,0 КГц
Аудио: #2 (Chinese): AC-3 , 192 Кбит/сек , 2 канала, 48,0 КГц

MediaInfo

Формат : AVI
Формат : AVI
Формат/Информация : Audio Video Interleave
Размер файла : 1,37 Гбайт
Продолжительность : 1 ч. 34 м.
Общий поток : 2071 Кбит/сек
Программа кодирования : VirtualDubMod 1.5.4.1 (build 2178/release)
Библиотека кодирования : VirtualDubMod build 2178/release
Видео
Идентификатор : 0
Формат : MPEG-4 Visual
Профиль формата : Advanced Simple@L5
Параметр BVOP формата : 1
Параметр QPel формата : Нет
Параметр GMC формата : Без точки перехода
Параметр матрицы формата : Выборочная
Идентификатор кодека : XVID
Идентификатор кодека/Подсказка : XviD
Продолжительность : 1 ч. 34 м.
Битрейт : 1678 Кбит/сек
Ширина : 640 пикселей
Высота : 352 пикселя
Соотношение сторон : 16:9
Частота кадров : 29,970 кадров/сек
Цветовое пространство : YUV
Субдискретизация насыщенности : 4:2:0
Битовая глубина : 8 бит
Тип развёртки : Прогрессивная
Метод сжатия : С потерями
Бит/(Пиксели*Кадры) : 0.248
Размер потока : 1,11 Гбайт (81%)
Библиотека кодирования : XviD 64
Аудио #1
Идентификатор : 1
Формат : AC-3
Формат/Информация : Audio Coding 3
Расширение режима : CM (complete main)
Параметр Endianness формата : Big
Идентификатор кодека : 2000
Продолжительность : 1 ч. 34 м.
Вид битрейта : Постоянный
Битрейт : 192 Кбит/сек
Каналы : 2 канала
Расположение каналов : Front: L R
Частота : 48,0 КГц
Битовая глубина : 16 бит
Метод сжатия : С потерями
Размер потока : 130 Мбайт (9%)
Выравнивание : Разделение по промежуткам
Продолжительность промежутка : 96 мс. (2,88 видеокадра)
Время предзагрузки промежутка : 96 мс.
Язык : Russian
Аудио #2
Идентификатор : 2
Формат : AC-3
Формат/Информация : Audio Coding 3
Расширение режима : CM (complete main)
Параметр Endianness формата : Big
Идентификатор кодека : 2000
Продолжительность : 1 ч. 34 м.
Вид битрейта : Постоянный
Битрейт : 192 Кбит/сек
Каналы : 2 канала
Расположение каналов : Front: L R
Частота : 48,0 КГц
Битовая глубина : 16 бит
Метод сжатия : С потерями
Размер потока : 130 Мбайт (9%)
Выравнивание : Разделение по промежуткам
Продолжительность промежутка : 96 мс. (2,88 видеокадра)
Время предзагрузки промежутка : 96 мс.
Язык : Chinese

Доп.инфо

Рип сделан с DVD-5 программой Auto Gordian Knot.
DVDinfo
Title: Desktop
Size: 3.80 Gb ( 3 982 050,00 KBytes ) - DVD-5
Enabled regions: 1, 2, 3, 4, 5, 6
VTS_01 :
Play Length: 01:34:15
Video: NTSC 4:3 (720x480) VBR
Audio:
Russian (Dolby AC3, 2 ch)
Chinese (Dolby AC3, 2 ch)
Subtitles:
Russian
English

Скриншоты

Скачать

Скачать торрент! Несовместимая парочка / The Unmatchable Match (Паркман Вонг / Parkman Wong) [1989 г., боевик, комедия, DVDRip] VO

Как скачивать? · Что такое торрент? · Рейтинг и ограничения

Сайт не распространяет и не хранит электронные версии произведений, а лишь предоставляет доступ к создаваемому пользователями каталогу ссылок на торрент-файлы, которые содержат только списки хеш-сумм

[Профиль] [ЛС]
Показать сообщения:    
Ответить на тему

Текущее время: Сегодня 16:56

Часовой пояс: GMT + 4



Вы не можете начинать темы
Вы не можете отвечать на сообщения
Вы не можете редактировать свои сообщения
Вы не можете удалять свои сообщения
Вы не можете голосовать в опросах
Вы не можете прикреплять файлы к сообщениям
Вы не можете скачивать файлы