Все собаки попадают в Рай / Все псы попадают в рай / All Dogs Go to Heaven (Дон Блат / Don Bluth, Гари Голдман / Gary Goldman, Дэн Куенстер / Dan Kuenster) [1989, Анимация, комедия, драма, семейный, BDRip] AVO (Юрий Живов)

Ответить на тему
 
Автор Сообщение

user ®

Стаж: 13 лет

Сообщений: 15041

Пост Пост: #1 от 16-Окт-2013 00:50

[Цитировать]

Все собаки попадают в Рай / Все псы попадают в рай / All Dogs Go to Heaven- Страна: США, Великобритания, Ирландия, MGM
Жанр: Анимация, комедия, драма, семейный
Продолжительность: 01:24:35
Год выпуска: 1989
Перевод: Авторский (одноголосый закадровый) - Юрий Живов
Русские субтитры: нет-Режиссёр: Дон Блат / Don Bluth, Гари Голдман / Gary Goldman, Дэн Куенстер / Dan Kuenster
Роли озвучивали: Берт Рэйнольдс, Дом ДеЛуис, Джудит Барси, Мелба Мур, Дарел Гиллей, Кэнди Дивайн, Чарльз Нельсон Рейли , Вик Тейбэк, Роб Фуллер, Эрлин Карей, Кен Пейдж-Описание: Пес по имени Чарли Баркин, занимавшийся азартными играми, погибает от лап питбуля Тупорыла и оказывается в раю — просто потому, что все псы обязательно попадают в рай. Однако Чарли так хочет рассчитаться со своим убийцей, что возвращается на Землю.
Вместе со своим верным другом Чесуном Чарли раскрывает главный секрет преуспевания Тупорыла. Тупорыл использует необыкновенные способности маленькой девочки-сироты по имени Анни-Мари, которая умеет разговаривать с животными и угадывает результаты крысиных бегов и лошадиных скачек. Чарли похищает девочку, и они становятся лучшими друзьями.
Им предстоит пережить множество невероятных приключений, прежде чем Чарли сможет, завершив свои земные дела, со спокойной душой отправиться обратно в рай…-Доп. информация: Дело было вечером, делать было нечего. Достала свои три кассеты Hi-Fi с этой трилогией "Все собаки попадают в рай" и оцифровала. Первый мультфильм представлен тут в авторском и самом лучшем, среди остальных, переводе замечательного Юры Живова. Большое ему спасибо за такой шикарнейший перевод казалось бы не очень удачного мультфильма MGM.
Как вы понимаете, этот перевод впервые на трекере и я вообще его не гробила как некоторые делают (шум типа "прибивают" и т.д.), а оставила как есть. Пару раз пришлось "подрезать" пустые места для подгонки по этому рипу (у меня вообще длина на 1 минуту больше в ПАЛ-варианте *Шокед-смайлик). Качество дороги оставила с высоким битрейтом в виду уникальности перевода. Пусть хоть "временный статус" поставят из-за "правил", но эта дорожка будет служить основой для дальнейших рипов - можете её использовать в БД-Ремуксе или 1080\720р рипах, я вам даю добро на её использование.
Что еще сказать? Вторая и третья часть будет тоже от меня, поскольку мои авторские дороги намного лучше по качеству тех что тут "висят".-"Исходник" для сведения дороги взяла [url=http://***/forum/viewtopic.php?t=3568015]kingsize87[/url], спасибо ему за качественный рип мультфильма.-Всем приятного просмотра!-СЭМПЛ (2 минуты, 32МВ)-Качество: BDRip
Формат: AVI
Видео: 704x384 (1.83:1), 23,976 fps, XviD build 62 ~1860 kbps avg, 0.29 bit/pixel
Аудио: 48 kHz, AC3 Dolby Digital, 2/0 (L,R), ~384.00 kbps avg
Субтитры: отсутствуют

Подробные технические данные

General Complete name : E:\movies\All_Dogs_Go_to_Heaven_AVO_Jivov_BDRip.avi Format : AVI Format/Info : Audio Video Interleave File size : 1.33 GiB Duration : 1h 24mn Overall bit rate : 2 255 Kbps Movie name : Все псы попадают в рай / All Dogs Go to Heaven (1989) BDRip Director : kingsize87 (Blu-ray Remux) Writing application : VirtualDubMod 1.5.10.1 (build 2366/release) Writing library : VirtualDubMod build 2366/release Copyright : HQCLUB (http://hqclub.net) Comment : 11.05.2011 Video Format : MPEG-4 Visual Format profile : Streaming Video@L1 Format settings, BVOP : Yes Format settings, QPel : No Format settings, GMC : No warppoints Format settings, Matrix : Custom Codec ID : XVID Codec ID/Hint : XviD Duration : 1h 24mn Bit rate : 1 861 Kbps Width : 704 pixels Height : 384 pixels Display aspect ratio : 16/9 Frame rate : 23.976 fps Resolution : 24 bits Colorimetry : 4:2:0 Scan type : Progressive Bits/(Pixel*Frame) : 0.287 Stream size : 1.10 GiB (83%) Writing library : XviD 62 Audio Format : AC-3 Format/Info : Audio Coding 3 Codec ID : 2000 Duration : 1h 24mn Bit rate mode : Constant Bit rate : 384 Kbps Channel(s) : 2 channels Channel positions : L R Sampling rate : 48.0 KHz Stream size : 232 MiB (17%) Alignment : Split accross interleaves Interleave, duration : 42 ms (1.00 video frame) Interleave, preload duration : 500 ms Title : RUS AVO Yuriy Jivov

Скриншоты

Скачать

Скачать торрент! Все собаки попадают в Рай / Все псы попадают в рай / All Dogs Go to Heaven (Дон Блат / Don Bluth, Гари Голдман / Gary Goldman, Дэн Куенстер / Dan Kuenster) [1989, Анимация, комедия, драма, семейный, BDRip] AVO (Юрий Живов)

Как скачивать? · Что такое торрент? · Рейтинг и ограничения

Сайт не распространяет и не хранит электронные версии произведений, а лишь предоставляет доступ к создаваемому пользователями каталогу ссылок на торрент-файлы, которые содержат только списки хеш-сумм

[Профиль] [ЛС]
Показать сообщения:    
Ответить на тему

Текущее время: Сегодня 19:15

Часовой пояс: GMT + 4



Вы не можете начинать темы
Вы не можете отвечать на сообщения
Вы не можете редактировать свои сообщения
Вы не можете удалять свои сообщения
Вы не можете голосовать в опросах
Вы не можете прикреплять файлы к сообщениям
Вы не можете скачивать файлы