Великий Шу / Wielki Szu / Big Shar (Сильвестр Хенчиньский / Sylwester Checinski) [1982, Польша, криминал, шулерство, авантюрная драма, HDTV 1080i] VO (Фильм-экспорт) + Original Pol

Ответить на тему
 
Автор Сообщение

user ®

Стаж: 7 лет 7 месяцев

Сообщений: 20008

Пост Пост: #1 от 15-Окт-2013 21:40

[Цитировать]

Великий Шу / Wielki Szu / Big Shar Год выпуска: 1982
Страна: Польша
Жанр: криминал, шулерство, авантюрная драма
Продолжительность: 01:37:09
Перевод: Студийный (одноголосый закадровый) | Фильм-экспорт, Владимир Герасимов
Оригинальная аудиодорожка: польский
Русские субтитры: нет-Режиссер: Сильвестр Хенчиньский / Sylwester Checinski
В ролях: Ян Новицкий, Анджей Печиньский, Дорота Помыкала, Леон Немчик, Кароль Страсбургер, Гражина Шаполовска, Божена Барановска, Тереза Савицка, Roman Baranowicz, Гражина Треля
Описание: Стареющий, но все еще известный в своей среде карточный шулер по прозвищу Великий Шу после пяти лет, проведенных в тюрьме, возвращается домой. Но его молодая и красивая жена не верит, что он мог измениться. Она предлагает ему развод и раздел довольно значительного имущества. В поисках тихой гавани Шу добирается до городка Лютынь, где собирается принять участие в аукционе на дом. Молодой таксист, Юрек, отвозит его к местному магнату Микуну, который намерен сам приобрести продающуюся недвижимость. Гость играет с ним партию в бильярд и проигрывает пару тысяч злотых. Довольный Микун предлагает ему реванш в покер...
"В покере нет секретов, есть только фокусы",- утверждает герой фильма. Знаменитый шулер, непревзойдённый мастер карточной игры, выйдя из тюрьмы, ищет себе достойного напарника. Он обучает всем тонкостям своего ремесла молодого азартного таксиста. Тот с увлечением принимается за дело и уже готов обыграть любого мошенника. Но он не подозревает, что является лишь пешкой в крупной игре, которую затеял его учитель...
"Великий Шу" в 1983 году был одним из самых популярных фильмов в Польше - более двух миллионов кинозрителей.-Качество: HDTV 1080i (Interlaced video)
Формат: TS
Видеокодек: AVC
Аудиокодек: AC3
Видео: 1920x1080i; 25 fps; 3911 Kbps; DAR: 4:3
Аудио #1: Русский; AC3; 2 Ch; 48.0 KHz; 192 Kbps | VO (Фильм-экспорт, Владимир Герасимов)
Аудио #2: Польский; AC3; 2 Ch; 48.0 KHz; 256 Kbps | Оригинал
Скачать сэмпл - http://multi-up.com/913411

Скриншоты

МедиаИнфо

General
ID : 1 (0x1)
Complete name : E:\MyRazd\Wielki.Szu.1982.HDTV.1080i.ts
Format : MPEG-TS
File size : 3.12 GiB
Duration : 1h 37mn
Overall bit rate mode : Variable
Overall bit rate : 4 590 Kbps
Maximum Overall bit rate : 35.5 Mbps
Video
ID : 4113 (0x1011)
Menu ID : 1 (0x1)
Format : AVC
Format/Info : Advanced Video Codec
Format profile : High@L4.0
Format settings, CABAC : Yes
Format settings, ReFrames : 3 frames
Codec ID : 27
Duration : 1h 37mn
Bit rate mode : Variable
Bit rate : 3 911 Kbps
Maximum bit rate : 40.0 Mbps
Width : 1 920 pixels
Height : 1 080 pixels
Display aspect ratio : 16:9
Frame rate : 25.000 fps
Standard : Component
Color space : YUV
Chroma subsampling : 4:2:0
Bit depth : 8 bits
Scan type : Interlaced
Scan order : Top Field First
Bits/(Pixel*Frame) : 0.075
Stream size : 2.65 GiB (85%)
Color primaries : BT.709-5, BT.1361, IEC 61966-2-4, SMPTE RP177
Transfer characteristics : BT.709-5, BT.1361
Matrix coefficients : BT.709-5, BT.1361, IEC 61966-2-4 709, SMPTE RP177
Audio #1
ID : 4352 (0x1100)
Menu ID : 1 (0x1)
Format : AC-3
Format/Info : Audio Coding 3
Mode extension : CM (complete main)
Codec ID : 129
Duration : 1h 37mn
Bit rate mode : Constant
Bit rate : 192 Kbps
Channel(s) : 2 channels
Channel positions : Front: L R
Sampling rate : 48.0 KHz
Bit depth : 16 bits
Compression mode : Lossy
Stream size : 133 MiB (4%)
Language : Russian
Audio #2
ID : 4353 (0x1101)
Menu ID : 1 (0x1)
Format : AC-3
Format/Info : Audio Coding 3
Mode extension : CM (complete main)
Codec ID : 129
Duration : 1h 37mn
Bit rate mode : Constant
Bit rate : 256 Kbps
Channel(s) : 2 channels
Channel positions : Front: L R
Sampling rate : 48.0 KHz
Bit depth : 16 bits
Compression mode : Lossy
Stream size : 178 MiB (6%)
Language : Polish
Скачать

Скачать торрент!

Как скачивать? · Что такое торрент? · Рейтинг и ограничения

Сайт не распространяет и не хранит электронные версии произведений, а лишь предоставляет доступ к создаваемому пользователями каталогу ссылок на торрент-файлы, которые содержат только списки хеш-сумм

[Профиль] [ЛС]
Показать сообщения:    
Ответить на тему

Текущее время: Сегодня 02:27

Часовой пояс: GMT + 4



Вы не можете начинать темы
Вы не можете отвечать на сообщения
Вы не можете редактировать свои сообщения
Вы не можете удалять свои сообщения
Вы не можете голосовать в опросах
Вы не можете прикреплять файлы к сообщениям
Вы не можете скачивать файлы