Фанатка / Swimfan (Джон Полсон / John Polson) [2002, США, триллер, драма, WEB-DL 720p] Dub + MVO + Sub Rus, Eng + Original Eng

Ответить на тему
 
Автор Сообщение

user ®

Стаж: 7 лет 7 месяцев

Сообщений: 20008

Пост Пост: #1 от 15-Окт-2013 21:40

[Цитировать]

Фанатка / Swimfan Страна: США
Студия: 20th Century Fox Film Corporation, Cobalt Media Group, Forrest Films
Жанр: триллер, драма
Год выпуска: 2002
Продолжительность: 01:24:55
Перевод 1: Профессиональный (дублированный) [МОСФИЛЬМ-мастер - DVD9 R5 «West Video», 2003]
Перевод 2: Профессиональный (многоголосый закадровый) [DVD5 NTSC]
Cубтитры: русские, английские
Оригинальная аудиодорожка: английский
Режиссер: Джон Полсон / John Polson
В ролях: Джесси Брэдфорд, Эрика Кристенсен, Шири Эпплби, Кейт Бёртон, Клейн Кроуфорд, Джейсон Риттер, Киа Гудвин, Дэн Хедайя, Майкл Хиггинс, Ник Сэндоу, Джеймс ДеБелло, Малкольм Баррет, Питер Хэрман, Джон Нокс, Патриция Рэй, Крис Фишер, Кристофер Ривера, Монро Манн, Триш МакГеттрик
Описание: Бен Кронин — баловень судьбы, предмет восхищения многочисленных друзей и поклонников. У него потрясающая подружка и неплохие перспективы попасть в университетскую спортивную команду. Не думайте, что все это дается ему легко — каждый день Бен проводит в бассейне много часов в непрерывных тренировках, работает в местной больнице и с трудом находит время, чтобы провести его со своей любимой Эми.
Внезапно жизнь Бена переворачивается вверх тормашками. В город приезжает «новая девчонка» — Мэдисон Белл, и сразу кладет глаз на симпатичного парня. Их первые встречи довольно невинны, но она хочет большего… Соблазнение Бена — лишь начало; она становится его самой верной фанаткой и одновременно — его ночным кошмаром, когда ее навязчивость переходит в ярость, предательство и убийство…- -Тип релиза: WEB-DL 720p
Контейнер: MKV
Видео: MPEG-4 AVC Video, 1280x544 / 2,35:1 (16:9) / ~3794 kbps / 23,976 fps / Main@L3.1
Аудио 1: Russian: AC3, 6 ch, 448 kbps, 48 kHz | [дублированный]
Аудио 2: Russian: AC3, 6 ch, 448 kbps, 48 kHz | [многоголосый]
Аудио 3: English: AC3, 6 ch, 448 kbps, 48 kHz | [DVD5 NTSC]
Аудио 4: English: AAC (LC) 2.0 ch, ~160kbps, 48 kHz | [original - iTunes US]
Главы: подписаны

MediaInfo

Общее
Уникальный идентификатор : 172445208949768528119183585901524536426 (0x81BBBD3A2158619CA03528269F9FCC6A)
Полное имя : Фанатка 2002.WEB-DL.720p.ДБ.ПМ.Eng2.mkv
Формат : Matroska
Версия формата : Version 4 / Version 2
Размер файла : 3,14 Гбайт
Продолжительность : 1 ч. 24 м.
Общий поток : 5298 Кбит/сек
Название фильма : Swimfan (2002)
Дата кодирования : UTC 2013-10-15 09:15:51
Программа кодирования : mkvmerge v6.4.1 ('Omega Point') built on Sep 16 2013 22:05:10
Библиотека кодирования : libebml v1.3.0 + libmatroska v1.4.1
Видео
Идентификатор : 1
Формат : AVC
Формат/Информация : Advanced Video Codec
Профиль формата : Main@L3.1
Параметр CABAC формата : Нет
Параметр ReFrames формата : 2 кадра
Идентификатор кодека : V_MPEG4/ISO/AVC
Продолжительность : 1 ч. 24 м.
Ширина : 1280 пикселей
Высота : 544 пикселя
Соотношение сторон : 2,35:1
Режим частоты кадров : Постоянный
Частота кадров : 23,976 кадра/сек
Цветовое пространство : YUV
Субдискретизация насыщенности : 4:2:0
Битовая глубина : 8 бит
Тип развёртки : Прогрессивная
Язык : English
Default : Да
Forced : Нет
Основные цвета : BT.709
Характеристики трансфера : BT.709
Коэффициенты матрицы : BT.709
Аудио #1
Идентификатор : 2
Формат : AC-3
Формат/Информация : Audio Coding 3
Расширение режима : CM (complete main)
Параметр Endianness формата : Big
Идентификатор кодека : A_AC3
Продолжительность : 1 ч. 24 м.
Вид битрейта : Постоянный
Битрейт : 448 Кбит/сек
Каналы : 6 каналов
Расположение каналов : Front: L C R, Side: L R, LFE
Частота : 48,0 КГц
Битовая глубина : 16 бит
Метод сжатия : С потерями
Размер потока : 272 Мбайт (8%)
Заголовок : AC3 6ch 448kbps - дубляж (МОСФИЛЬМ-мастер - DVD9 R5 «West Video», 2003)
Язык : Russian
Default : Да
Forced : Нет
Аудио #2
Идентификатор : 3
Формат : AC-3
Формат/Информация : Audio Coding 3
Расширение режима : CM (complete main)
Параметр Endianness формата : Big
Идентификатор кодека : A_AC3
Продолжительность : 1 ч. 24 м.
Вид битрейта : Постоянный
Битрейт : 448 Кбит/сек
Каналы : 6 каналов
Расположение каналов : Front: L C R, Side: L R, LFE
Частота : 48,0 КГц
Битовая глубина : 16 бит
Метод сжатия : С потерями
Размер потока : 272 Мбайт (8%)
Заголовок : AC3 6ch 448kbps - многоголосый (DVD5 NTSC)
Язык : Russian
Default : Нет
Forced : Нет
Аудио #3
Идентификатор : 4
Формат : AC-3
Формат/Информация : Audio Coding 3
Расширение режима : CM (complete main)
Параметр Endianness формата : Big
Идентификатор кодека : A_AC3
Продолжительность : 1 ч. 24 м.
Вид битрейта : Постоянный
Битрейт : 448 Кбит/сек
Каналы : 6 каналов
Расположение каналов : Front: L C R, Side: L R, LFE
Частота : 48,0 КГц
Битовая глубина : 16 бит
Метод сжатия : С потерями
Размер потока : 272 Мбайт (8%)
Заголовок : AC3 6ch 448kbps - (DVD5 NTSC)
Язык : English
Default : Нет
Forced : Нет
Аудио #4
Идентификатор : 5
Формат : AAC
Формат/Информация : Advanced Audio Codec
Профиль формата : LC
Идентификатор кодека : A_AAC
Продолжительность : 1 ч. 24 м.
Каналы : 2 канала
Расположение каналов : Front: L R
Частота : 48,0 КГц
Метод сжатия : С потерями
Заголовок : AAC (LC) 2.0ch ~160kbps - original (iTunes US)
Язык : English
Default : Нет
Forced : Нет
Текст #1
Идентификатор : 6
Формат : UTF-8
Идентификатор кодека : S_TEXT/UTF8
Идентификатор кодека/Информация : UTF-8 Plain Text
Язык : Russian
Default : Нет
Forced : Нет
Текст #2
Идентификатор : 7
Формат : UTF-8
Идентификатор кодека : S_TEXT/UTF8
Идентификатор кодека/Информация : UTF-8 Plain Text
Язык : English
Default : Нет
Forced : Нет
Меню
00:00:00.000 : en:Main Titles
00:03:25.000 : en:Ben
00:06:50.000 : en:Madison
00:13:29.000 : en:Madison's Music
00:19:18.000 : en:Swimming
00:26:33.000 : en:A Party
00:30:12.000 : en:Swimfan85
00:32:51.000 : en:Mom's Birthday
00:37:25.000 : en:More E-mail
00:39:11.000 : en:Making Friends
00:46:12.000 : en:Amy Finds Out
00:49:53.000 : en:The Swim Meet
00:53:11.000 : en:Talking it Over
00:55:47.000 : en:The Death of a Friend
00:58:27.000 : en:Searching for Evidence
01:01:58.000 : en:Jake Donnelly
01:07:54.000 : en:The Set-Up
01:12:20.000 : en:Amy Gets a Visitor
01:16:29.000 : en:At the Pool
01:20:48.000 : en:End Titles

-
Скачать

Скачать торрент!

Как скачивать? · Что такое торрент? · Рейтинг и ограничения

Сайт не распространяет и не хранит электронные версии произведений, а лишь предоставляет доступ к создаваемому пользователями каталогу ссылок на торрент-файлы, которые содержат только списки хеш-сумм

[Профиль] [ЛС]
Показать сообщения:    
Ответить на тему

Текущее время: Сегодня 22:19

Часовой пояс: GMT + 4



Вы не можете начинать темы
Вы не можете отвечать на сообщения
Вы не можете редактировать свои сообщения
Вы не можете удалять свои сообщения
Вы не можете голосовать в опросах
Вы не можете прикреплять файлы к сообщениям
Вы не можете скачивать файлы