Рабство / Trade (Марко Кройцпайнтнер / Marco Kreuzpaintner) [2007, Германия, США, триллер, драма, криминал, WEB-DL 720p] 2х MVO + Sub Rus, Eng + Original Eng

Ответить на тему
 
Автор Сообщение

user ®

Стаж: 7 лет 7 месяцев

Сообщений: 20008

Пост Пост: #1 от 15-Окт-2013 21:40

[Цитировать]

Рабство / Trade Страна: Германия, США
Студия: Centropolis Entertainment, VIP 4 Medienfonds, Lionsgate
Жанр: триллер, драма, криминал
Год выпуска: 2007
Продолжительность: 01:59:33
Перевод 1: Профессиональный (многоголосый закадровый) [DVD R5 - «Парадиз Видео», 2007]
Перевод 2: Профессиональный (многоголосый закадровый) [по заказу 1 канала]
Cубтитры: русские, английские
Присутствуют английские хардсабы (диалоги на испанском, русском)
Оригинальная аудиодорожка: английский
Режиссер: Марко Кройцпайнтнер / Marco Kreuzpaintner
В ролях: Кевин Клайн, Сизар Рамос, Алиция Бахледа, Паулина Гайтан, Марко Перес, Линда Эмонд, Зак Уорд, Кейт дель Кастильо, Тим Рейд, Павел Личникофф, Наталия Травен, Гильермо Иван, Кристиан Васкес, Хосе Сефами, Кэтлин Гати, Энтони Кривелло, Уильям Стерчи, Хулио Эскалеро, Рио Александр, Эйми-Линн Чедвик, Бо Грей, Джош Берри, Лена Бэран, Лариса Еремина
Описание: В Мехико группа преступников похищает 13-летнюю девочку Адриану для продажи в сексуальное рабство. Одновременно с похищением Адрианы в Мексику прибывают молодые девушки, которые приехали якобы по набору в модельное агентство. Прямо в здании аэропорта у них отбирают документы и увозят для продажи в сексуальное рабство. В фильме судьбы Адрианы и этих девушек переплетаются.
17-летний брат Хорхе начинает поиски сестры Адрианы. Юноша решает бросить вызов обстоятельствам, но он оказывается не одинок в своем горе, на помощь ему приходит полицейский Рэй, у которого подобным же образом украли молодую дочь. Вместе они пытаются противостоять преступному бизнесу и вызволить девушек из страшного и порочного плена.
Фильм основан на статье Питера Ландсмена о сексуальном рабстве, опубликованной 25 января 2004 года в «Нью-Йорк Таймс».
Доп. информация: Тип релиза: WEB-DL 720p
Контейнер: MKV
Видео: MPEG-4 AVC Video, 1280x542 / 2,35:1 (16:9) / ~4095 kbps / 23,976 fps / Main@L3.1
Аудио 1: Russian: AC3, 6ch, 448 kbps, 48 kHz | DVD R5
Аудио 2: Russian: AC3, 6ch, 448 kbps, 48 kHz | 1-го канала
Аудио 3: English: AC3, 6ch, 384 kbps, 48 kHz
Формат субтитров: softsub (SRT)
Главы:

MediaInfo

Общее
Уникальный идентификатор : 176527807557713447523056848209806362928 (0x84CE04E1110865D6A6472D0BEB4C0930)
Полное имя : Рабство 2007.WEB-DL.720p.2хПМ.Eng.mkv
Формат : Matroska
Версия формата : Version 4 / Version 2
Размер файла : 4,49 Гбайт
Продолжительность : 1 ч. 59 м.
Общий поток : 5377 Кбит/сек
Название фильма : Trade (2007)
Дата кодирования : UTC 2013-10-15 11:22:11
Программа кодирования : mkvmerge v6.4.1 ('Omega Point') built on Sep 16 2013 22:05:10
Библиотека кодирования : libebml v1.3.0 + libmatroska v1.4.1
Видео
Идентификатор : 1
Формат : AVC
Формат/Информация : Advanced Video Codec
Профиль формата : Main@L3.1
Параметр CABAC формата : Нет
Параметр ReFrames формата : 2 кадра
Идентификатор кодека : V_MPEG4/ISO/AVC
Продолжительность : 1 ч. 59 м.
Битрейт : 3990 Кбит/сек
Ширина : 1280 пикселей
Высота : 542 пикселя
Соотношение сторон : 2,35:1
Режим частоты кадров : Постоянный
Частота кадров : 23,976 кадра/сек
Цветовое пространство : YUV
Субдискретизация насыщенности : 4:2:0
Битовая глубина : 8 бит
Тип развёртки : Прогрессивная
Бит/(Пиксели*Кадры) : 0.240
Размер потока : 3,33 Гбайт (74%)
Язык : English
Default : Да
Forced : Нет
Основные цвета : BT.709
Характеристики трансфера : BT.709
Коэффициенты матрицы : BT.709
Аудио #1
Идентификатор : 2
Формат : AC-3
Формат/Информация : Audio Coding 3
Расширение режима : CM (complete main)
Параметр Endianness формата : Big
Идентификатор кодека : A_AC3
Продолжительность : 1 ч. 59 м.
Вид битрейта : Постоянный
Битрейт : 448 Кбит/сек
Каналы : 6 каналов
Расположение каналов : Front: L C R, Side: L R, LFE
Частота : 48,0 КГц
Битовая глубина : 16 бит
Метод сжатия : С потерями
Размер потока : 383 Мбайт (8%)
Заголовок : AC3 6ch 448kbps - многоголосый (DVD R5 - «Парадиз Видео», 2007)
Язык : Russian
Default : Да
Forced : Нет
Аудио #2
Идентификатор : 3
Формат : AC-3
Формат/Информация : Audio Coding 3
Расширение режима : CM (complete main)
Параметр Endianness формата : Big
Идентификатор кодека : A_AC3
Продолжительность : 1 ч. 59 м.
Вид битрейта : Постоянный
Битрейт : 448 Кбит/сек
Каналы : 6 каналов
Расположение каналов : Front: L C R, Side: L R, LFE
Частота : 48,0 КГц
Битовая глубина : 16 бит
Метод сжатия : С потерями
Размер потока : 383 Мбайт (8%)
Заголовок : AC3 6ch 448kbps - многоголосый (по заказу 1 канала)
Язык : Russian
Default : Нет
Forced : Нет
Аудио #3
Идентификатор : 4
Формат : AC-3
Формат/Информация : Audio Coding 3
Расширение режима : CM (complete main)
Параметр Endianness формата : Big
Идентификатор кодека : A_AC3
Продолжительность : 1 ч. 59 м.
Вид битрейта : Постоянный
Битрейт : 384 Кбит/сек
Каналы : 6 каналов
Расположение каналов : Front: L C R, Side: L R, LFE
Частота : 48,0 КГц
Битовая глубина : 16 бит
Метод сжатия : С потерями
Размер потока : 328 Мбайт (7%)
Заголовок : AC3 6ch 384kbps - original
Язык : English
Default : Нет
Forced : Нет
Текст #1
Идентификатор : 5
Формат : UTF-8
Идентификатор кодека : S_TEXT/UTF8
Идентификатор кодека/Информация : UTF-8 Plain Text
Заголовок : DVD R5
Язык : Russian
Default : Нет
Forced : Нет
Текст #2
Идентификатор : 6
Формат : UTF-8
Идентификатор кодека : S_TEXT/UTF8
Идентификатор кодека/Информация : UTF-8 Plain Text
Язык : Russian
Default : Нет
Forced : Нет
Текст #3
Идентификатор : 7
Формат : UTF-8
Идентификатор кодека : S_TEXT/UTF8
Идентификатор кодека/Информация : UTF-8 Plain Text
Язык : English
Default : Нет
Forced : Нет
Меню
00:00:00.000 : en:1
00:08:48.000 : en:2
00:17:36.000 : en:3
00:26:24.000 : en:4
00:33:49.000 : en:5
00:43:04.000 : en:6
00:53:08.000 : en:7
01:01:53.000 : en:8
01:09:53.000 : en:9
01:19:13.000 : en:10
01:29:04.000 : en:11
01:37:39.000 : en:12
01:46:37.000 : en:13
01:54:18.000 : en:14

-

Скриншот с названием фильма

Скачать

Скачать торрент!

Как скачивать? · Что такое торрент? · Рейтинг и ограничения

Сайт не распространяет и не хранит электронные версии произведений, а лишь предоставляет доступ к создаваемому пользователями каталогу ссылок на торрент-файлы, которые содержат только списки хеш-сумм

[Профиль] [ЛС]
Показать сообщения:    
Ответить на тему

Текущее время: Сегодня 20:20

Часовой пояс: GMT + 4



Вы не можете начинать темы
Вы не можете отвечать на сообщения
Вы не можете редактировать свои сообщения
Вы не можете удалять свои сообщения
Вы не можете голосовать в опросах
Вы не можете прикреплять файлы к сообщениям
Вы не можете скачивать файлы