Сон бабочки / Kelebegin Ruyasi (Йылмаз Эрдоган / Yilmaz Erdogan) [2013, Турция, Драма, биография, история, HDRip] VO

Ответить на тему
 
Автор Сообщение

user ®

Стаж: 7 лет 7 месяцев

Сообщений: 20008

Пост Пост: #1 от 15-Окт-2013 10:30

[Цитировать]

Сон бабочки / Kelebegin Ruyasi
Страна: Турция
Жанр: Драма, биография, история
Год выпуска: 2013
Продолжительность: 02:08:37
Перевод: Одноголосый закадровый - turok1990
Cубтитры: нет
Режиссер: Йылмаз Эрдоган / Yılmaz Erdoğan
В ролях: Кыванч Татлытуг, Мерт Фырат, Бельчим Билгин, Фара Зейнеп Абдулла и др.
Описание: События фильма разворачиваются в 1941 году.
Два молодых поэта, из Зонгулудака – поэт Рюштю Онур (Мерт Фырат) и Музаффэр Тайип Услу (Кыванч Татлытуг), в новом и современном шахтерском городке, живут душа в душу с искусством, а с другой стороны – литературой, но особенно со стихами.
Молодое Государство, только поднявшееся на ноги, с одной стороны пытается модернизировать все, и в то же время в Европе начинается Вторая Мировая Война.
В обществе, которое еще не сформировало свой взгляд для восприятия поэзии и искусств, эти молодые люди, заболевшие туберкулезом, будут стараться сделать так, чтобы все полюбили стихотворение. Дочь мэра города – Сузан Озсой вернется в Зонгулудак и вера в стих у Рюштю и Музаффэра возрастет.
Музаффэр влюбится в Сузан. Но несмотря на нежелание семьи, Сузан, которая пока еще училась в лицее, станет дружить с молодыми людьми. Но туберкулёз, ставший чумой в 1940-х годах, будет угрожать здоровью молодых людей. Рюштю и Музаффэр будут пытаться построить собственное будущее…
Сэмпл: http://yadi.sk/d/MUKgE0cgAx7zE
Качество видео: DvdRip
Формат видео: AVI
Видео: 672x304 (2.21:1), 25 fps, XviD MPEG-4 ~1504 kbps avg, 0.29 bit/pixel
Аудио: 44.100 kHz, MPEG Layer 3, 2 ch, ~192.00 kbps avg

MediaInfo

Общее
Формат : AVI
Формат/Информация : Audio Video Interleave
Размер файла : 1,53 Гбайт
Продолжительность : 2 ч. 8 м.
Общий поток : 1707 Кбит/сек
Программа кодирования : VirtualDubMod 1.5.10.2 (build 2542/release)
Библиотека кодирования : VirtualDub build 32842/release
Видео
Идентификатор : 0
Формат : MPEG-4 Visual
Профиль формата : Advanced Simple@L5
Параметр BVOP формата : 2
Параметр QPel формата : Нет
Параметр GMC формата : Без точки перехода
Параметр матрицы формата : Default (MPEG)
Режим смешивания : Сжатый битовый поток
Идентификатор кодека : XVID
Идентификатор кодека/Подсказка : XviD
Продолжительность : 2 ч. 8 м.
Битрейт : 1505 Кбит/сек
Ширина : 672 пикселя
Высота : 304 пикселя
Соотношение сторон : 2,2:1
Частота кадров : 25,000 кадров/сек
Цветовое пространство : YUV
Субдискретизация насыщенности : 4:2:0
Битовая глубина : 8 бит
Тип развёртки : Прогрессивная
Метод сжатия : С потерями
Бит/(Пиксели*Кадры) : 0.295
Размер потока : 1,35 Гбайт (88%)
Библиотека кодирования : XviD 1.2.1 (UTC 2008-12-04)
Аудио
Идентификатор : 1
Формат : MPEG Audio
Версия формата : Version 1
Профиль формата : Layer 3
Идентификатор кодека : 55
Идентификатор кодека/Подсказка : MP3
Продолжительность : 2 ч. 8 м.
Вид битрейта : Постоянный
Битрейт : 192 Кбит/сек
Каналы : 2 канала
Частота : 44,1 КГц
Метод сжатия : С потерями
Размер потока : 177 Мбайт (11%)
Выравнивание : Разделение по промежуткам
Продолжительность промежутка : 40 мс. (1,00 видеокадр)
Время предзагрузки промежутка : 500 мс.

Скриншот c названием фильма

Скачать

Скачать торрент!

Как скачивать? · Что такое торрент? · Рейтинг и ограничения

Сайт не распространяет и не хранит электронные версии произведений, а лишь предоставляет доступ к создаваемому пользователями каталогу ссылок на торрент-файлы, которые содержат только списки хеш-сумм

[Профиль] [ЛС]
Показать сообщения:    
Ответить на тему

Текущее время: Сегодня 18:10

Часовой пояс: GMT + 4



Вы не можете начинать темы
Вы не можете отвечать на сообщения
Вы не можете редактировать свои сообщения
Вы не можете удалять свои сообщения
Вы не можете голосовать в опросах
Вы не можете прикреплять файлы к сообщениям
Вы не можете скачивать файлы