Летучие мыши / Bats (Луис Морно / Louis Morneau) [1999, США, ужасы, триллер, HDTV 1080i] MVO + original (eng) + sub (rus, eng)

Ответить на тему
 
Автор Сообщение

user ®

Стаж: 7 лет 7 месяцев

Сообщений: 20008

Пост Пост: #1 от 14-Окт-2013 03:05

[Цитировать]

Летучие мыши / Bats
Год выпуска: 1999
Страна: США
Жанр: ужасы, триллер
Продолжительность: 01:27:19
Перевод: Профессиональный (многолосый, закадровый)
Субтитры: русские, английские
Оригинальная аудиодорожка: английский
Режиссер: Луис Морно / Louis Morneau
В ролях: Даймонд Филлипс, Дина Мейер, Боб Гантон, Леон, Карлос Джекотт, Дэвид МакКоннелл, Марсия Дэнгерфилд, Оскар Роулэнд, Тим Уайтакер, Джулиана Джонсон
Описание: Полная луна выходит на ночной небосклон. Но не стоит слишком долго любоваться ее чарующим светом. Очень скоро вас атакует кромешный мрак, и с онемевших от ужаса небес спуститься ожившая тьма, несущая на своих крыльях смерть. Бесчисленные легионы летучих мышей обрушиться на землю кровавым дождем, что бы утолить свою жажду. И даже в самом темном закоулке жителям спящего города не укрыться от вездесущей тьмы…

Качество: HDTV 1080i
Формат: MKV
Видео кодек: H.264
Аудио кодек: AC3
Видео: 1920 x 1080; 25 fps; 7 604 Kbps
Аудио1: Русский, AC3 5.1 448 Kbps 48,0 КГц(MVO)
Аудио2: English, AC3 5.1 448 Kbps 48,0 КГц(Original)
Аудио3: English, AC3 2.0 192 Kbps 48,0 КГц(Commentary)
Субтитры: SoftSub (SRT)

MediaInfo

D:\HDFILMS\Bats.1999.1080i.HDTV.Rus.Eng.mkv
General
Unique ID : 238909361435565572517025864467867503518 (0xB3BC44F20B9BD147B642F52FFB000B9E)
Complete name : D:\HDFILMS\Bats.1999.1080i.HDTV.Rus.Eng.mkv
Format : Matroska
File size : 5.41 GiB
Duration : 1h 27mn
Overall bit rate : 8 863 Kbps
Movie name : Bats
Encoded date : UTC 2013-10-13 17:19:43
Writing application : mkvmerge v6.2.0 ('Promised Land') built on Apr 28 2013 12:22:01
Writing library : libebml v1.3.0 + libmatroska v1.4.0
Video #1
ID : 1
Format : AVC
Format/Info : Advanced Video Codec
Format profile : High@L4.0
Format settings, CABAC : Yes
Format settings, ReFrames : 3 frames
Format settings, GOP : M=1, N=18
Codec ID : V_MPEG4/ISO/AVC
Duration : 1h 27mn
Bit rate : 7 599 Kbps
Width : 1 920 pixels
Height : 1 080 pixels
Display aspect ratio : 16:9
Frame rate : 50.000 fps
Original frame rate : 25.000 fps
Standard : Component
Color space : YUV
Chroma subsampling : 4:2:0
Bit depth : 8 bits
Scan type : Interlaced
Scan order : Top Field First
Bits/(Pixel*Frame) : 0.073
Stream size : 4.64 GiB (86%)
Title : Bats 1999 1080p HDTV H.264 DD2.0
Color primaries : BT.709-5, BT.1361, IEC 61966-2-4, SMPTE RP177
Transfer characteristics : BT.709-5, BT.1361
Matrix coefficients : BT.709-5, BT.1361, IEC 61966-2-4 709, SMPTE RP177
Audio #2
ID : 2
Format : AC-3
Format/Info : Audio Coding 3
Mode extension : CM (complete main)
Codec ID : A_AC3
Duration : 1h 27mn
Bit rate mode : Constant
Bit rate : 448 Kbps
Channel(s) : 6 channels
Channel positions : Front: L C R, Side: L R, LFE
Sampling rate : 48.0 KHz
Bit depth : 16 bits
Compression mode : Lossy
Stream size : 280 MiB (5%)
Title : MVO AC3 5.1 448 kbps
Language : Russian
Audio #3
ID : 3
Format : AC-3
Format/Info : Audio Coding 3
Mode extension : CM (complete main)
Codec ID : A_AC3
Duration : 1h 27mn
Bit rate mode : Constant
Bit rate : 448 Kbps
Channel(s) : 6 channels
Channel positions : Front: L C R, Side: L R, LFE
Sampling rate : 48.0 KHz
Bit depth : 16 bits
Compression mode : Lossy
Stream size : 280 MiB (5%)
Title : Original AC3 5.1 448 kbps
Language : English
Audio #4
ID : 4
Format : AC-3
Format/Info : Audio Coding 3
Format profile : Dolby Digital
Mode extension : CM (complete main)
Codec ID : A_AC3
Duration : 1h 27mn
Bit rate mode : Constant
Bit rate : 192 Kbps
Channel(s) : 2 channels
Channel positions : Front: L R
Sampling rate : 48.0 KHz
Bit depth : 16 bits
Compression mode : Lossy
Stream size : 120 MiB (2%)
Title : Commentary AC3 2.0 192 kbps
Language : English
Text #5
ID : 5
Format : UTF-8
Codec ID : S_TEXT/UTF8
Codec ID/Info : UTF-8 Plain Text
Language : Russian
Text #6
ID : 6
Format : UTF-8
Codec ID : S_TEXT/UTF8
Codec ID/Info : UTF-8 Plain Text
Language : English

Скриншоты

Скачать

Скачать торрент!

Как скачивать? · Что такое торрент? · Рейтинг и ограничения

Сайт не распространяет и не хранит электронные версии произведений, а лишь предоставляет доступ к создаваемому пользователями каталогу ссылок на торрент-файлы, которые содержат только списки хеш-сумм

[Профиль] [ЛС]
Показать сообщения:    
Ответить на тему

Текущее время: Сегодня 06:01

Часовой пояс: GMT + 4



Вы не можете начинать темы
Вы не можете отвечать на сообщения
Вы не можете редактировать свои сообщения
Вы не можете удалять свои сообщения
Вы не можете голосовать в опросах
Вы не можете прикреплять файлы к сообщениям
Вы не можете скачивать файлы