Пропавший без вести / Missing (Коста-Гаврас / Costa-Gavras) [1982, США, триллер, драма, детектив, история, WEB-DL 720p] MVO + Dub + Sub Eng + Original Eng

Ответить на тему
 
Автор Сообщение

user ®

Стаж: 7 лет 7 месяцев

Сообщений: 20008

Пост Пост: #1 от 14-Окт-2013 03:05

[Цитировать]

Пропавший без вести / Missing Страна: США
Студия: Universal Pictures, PolyGram Filmed Entertainment
Жанр: триллер, драма, детектив, история
Год выпуска: 1982
Продолжительность: 02:02:31
Перевод 1: Профессиональный (многоголосый закадровый) [DVD R5 - Universal Pictures Rus]
Перевод 2: Профессиональный (дублированный) [VHS]
Cубтитры: английские
Присутствуют несколько форсированных нардсабов (надписи и реплики на испанском)
Оригинальная аудиодорожка: английский
Режиссер: Коста-Гаврас / Costa-Gavras
В ролях: Джек Леммон, Сисси Спейсек, Мелани Мейрон, Джон Ши, Чарльз Чоффи, Дэвид Кленнон, Ричард Венчур, Джерри Хардин, Ричард Брэдфорд, Джо Регалбуто, Кит Шарабайка, Дженис Рул, Хансфорд Роу, Тина Ромеро, Мартин ЛаСалль, Хорхе Руссек
Описание: Чили, сентябрь 1973 года. Только что произошел военный переворот, в результате которого было свергнуто законное правительство Сальвадора Альенде. На улицах комендантский час, постоянно раздаются выстрелы, люди гибнут десятками.
Молодой журналист и писатель Чарли Хорман (Джон Ши) возвращаясь из Винья-дель-Мар в Сантьяго, где его ждет жена Бет (Сисси Спэйсек), сообщает ей, что видел и слышал много интересного и записал кое-что. Однажды Бет задерживается и не может вернуться домой, ей приходится ночевать в подворотне. Придя домой, она обнаруживает, что весь дом перевернут, а Чарли пропал. Соседи говорят, что его забрали военные, однако те через американское консульство утверждают, что отпустили его и он, вероятно, скрывается. Время идет, а Чарли не появляется.
Через две недели после исчезновения бизнесмен Эд Хорман (Джек Леммон), отец Чарльза, приезжает в Чили, чтобы на месте заняться его поисками. Поначалу Эд настроен скептически по отношению к своей невестке и хочет сотрудничать с американскими представителями, но их нежелание что-либо делать наводит его на подозрения и заставляет предпринять собственное расследование.
В основу фильма легла реальная история Чарльза Хормана, молодого журналиста из США, исчезнувшего в Чили после кровавого переворота 11 сентября 1973, когда к власти пришёл диктатор Аугусто Пиночет.
Доп. информация: Тип релиза: WEB-DL 720p
Контейнер: MKV
Видео: MPEG-4 AVC Video, 1280x694 / 1,85:1 (16:9) / ~ 3923 kbps / 23,976 fps / High@L3.1
Аудио 1: Russian: AC3, 2.0 mono, 192 kbps, 48 kHz | Многоголосый
Аудио 2: Russian: AC3, 2.0 mono, 192 kbps, 48 kHz | Дубляж
Аудио 3: English: AC3, 1.0 ch, 192 kbps, 48 kHz
Формат субтитров: softsub (SRT)
Главы:

MediaInfo

Общее
Уникальный идентификатор : 200275710925583928541786547435458528191 (0x96ABB2E9D5259C78954B5CD0DAD403BF)
Полное имя : Пропавший без вести 1982.WEB-DL.720p.ПМ.ДБ.Eng.mkv
Формат : Matroska
Версия формата : Version 4 / Version 2
Размер файла : 3,85 Гбайт
Продолжительность : 2 ч. 2 м.
Общий поток : 4501 Кбит/сек
Название фильма : Missing (1982)
Дата кодирования : UTC 2013-10-13 20:46:44
Программа кодирования : mkvmerge v6.4.1 ('Omega Point') built on Sep 16 2013 22:05:10
Библиотека кодирования : libebml v1.3.0 + libmatroska v1.4.1
Видео
Идентификатор : 1
Формат : AVC
Формат/Информация : Advanced Video Codec
Профиль формата : High@L3.1
Параметр CABAC формата : Нет
Параметр ReFrames формата : 2 кадра
Идентификатор кодека : V_MPEG4/ISO/AVC
Продолжительность : 2 ч. 2 м.
Битрейт : 3835 Кбит/сек
Ширина : 1280 пикселей
Высота : 694 пикселя
Соотношение сторон : 1,85:1
Режим частоты кадров : Постоянный
Частота кадров : 23,976 кадра/сек
Цветовое пространство : YUV
Субдискретизация насыщенности : 4:2:0
Битовая глубина : 8 бит
Тип развёртки : Прогрессивная
Бит/(Пиксели*Кадры) : 0.180
Размер потока : 3,28 Гбайт (85%)
Язык : English
Default : Да
Forced : Нет
Основные цвета : BT.709
Характеристики трансфера : BT.709
Коэффициенты матрицы : BT.709
Аудио #1
Идентификатор : 2
Формат : AC-3
Формат/Информация : Audio Coding 3
Расширение режима : CM (complete main)
Параметр Endianness формата : Big
Идентификатор кодека : A_AC3
Продолжительность : 2 ч. 2 м.
Вид битрейта : Постоянный
Битрейт : 192 Кбит/сек
Каналы : 2 канала
Расположение каналов : Front: L R
Частота : 48,0 КГц
Битовая глубина : 16 бит
Метод сжатия : С потерями
Размер потока : 168 Мбайт (4%)
Заголовок : AC3 2.0 mono 192kps - многоголосый (DVD R5 - Universal Pictures Rus)
Язык : Russian
Default : Да
Forced : Нет
Аудио #2
Идентификатор : 3
Формат : AC-3
Формат/Информация : Audio Coding 3
Расширение режима : CM (complete main)
Параметр Endianness формата : Big
Идентификатор кодека : A_AC3
Продолжительность : 2 ч. 2 м.
Вид битрейта : Постоянный
Битрейт : 192 Кбит/сек
Каналы : 2 канала
Расположение каналов : Front: L R
Частота : 48,0 КГц
Битовая глубина : 16 бит
Метод сжатия : С потерями
Размер потока : 168 Мбайт (4%)
Заголовок : AC3 2.0 mono 192kps - дубляж (VHS)
Язык : Russian
Default : Нет
Forced : Нет
Аудио #3
Идентификатор : 4
Формат : AC-3
Формат/Информация : Audio Coding 3
Расширение режима : CM (complete main)
Параметр Endianness формата : Big
Идентификатор кодека : A_AC3
Продолжительность : 2 ч. 2 м.
Вид битрейта : Постоянный
Битрейт : 192 Кбит/сек
Каналы : 1 канал
Расположение каналов : Front: C
Частота : 48,0 КГц
Битовая глубина : 16 бит
Метод сжатия : С потерями
Размер потока : 168 Мбайт (4%)
Заголовок : AC3 1.0 192kps - original
Язык : English
Default : Нет
Forced : Нет
Текст
Идентификатор : 5
Формат : UTF-8
Идентификатор кодека : S_TEXT/UTF8
Идентификатор кодека/Информация : UTF-8 Plain Text
Язык : English
Default : Нет
Forced : Нет
Меню
00:00:00.000 : en:00:00:00.000
00:06:01.000 : en:00:06:01.000
00:10:44.000 : en:00:10:44.000
00:17:26.000 : en:00:17:26.000
00:25:22.000 : en:00:25:22.000
00:28:46.000 : en:00:28:46.000
00:40:17.000 : en:00:40:17.000
00:49:11.000 : en:00:49:11.000
00:55:09.000 : en:00:55:09.000
01:00:46.000 : en:01:00:46.000
01:06:32.000 : en:01:06:32.000
01:15:00.000 : en:01:15:00.000
01:22:33.000 : en:01:22:33.000
01:34:29.000 : en:01:34:29.000
01:38:16.000 : en:01:38:16.000
01:43:05.000 : en:01:43:05.000
01:50:35.000 : en:01:50:35.000
01:59:29.000 : en:01:59:29.000

-

Скриншот с названием фильма


-

Награды

Награды:
1982 — два приза Каннского кинофестиваля: «Золотая пальмовая ветвь» и приз за лучшую мужскую роль (Джек Леммон)
1983 — премия «Оскар» за лучший адаптированный сценарий (Коста-Гаврас, Дональд Стюарт)
1983 — две премии Британской киноакадемии: лучший сценарий (Коста-Гаврас, Дональд Стюарт), лучший монтаж (Франсуаза Бонно)
1983 — премия Гильдии сценаристов США за лучшую адаптированную драму (Коста-Гаврас, Дональд Стюарт)
Номинации:
1983 — три номинации на премию «Оскар»: лучший фильм (Эдвард Льюис, Милдред Льюис), лучший актер (Джек Леммон), лучшая актриса (Сисси Спэйсек)
1983 — 5 номинаций на премию Британской киноакадемии: лучший фильм (Эдвард Льюис, Милдред Льюис), лучший актер (Джек Леммон), лучшая актриса (Сисси Спэйсек), лучший режиссер (Коста-Гаврас), лучшая музыка (Вангелис)
1983 — 5 номинаций на премию «Золотой глобус»: лучший фильм — драма, лучший актер — драма (Джек Леммон), лучшая актриса — драма (Сисси Спэйсек), лучший режиссер (Коста-Гаврас), лучший сценарий (Коста-Гаврас, Дональд Стюарт)
Скачать

Скачать торрент!

Как скачивать? · Что такое торрент? · Рейтинг и ограничения

Сайт не распространяет и не хранит электронные версии произведений, а лишь предоставляет доступ к создаваемому пользователями каталогу ссылок на торрент-файлы, которые содержат только списки хеш-сумм

[Профиль] [ЛС]
Показать сообщения:    
Ответить на тему

Текущее время: Сегодня 14:34

Часовой пояс: GMT + 4



Вы не можете начинать темы
Вы не можете отвечать на сообщения
Вы не можете редактировать свои сообщения
Вы не можете удалять свои сообщения
Вы не можете голосовать в опросах
Вы не можете прикреплять файлы к сообщениям
Вы не можете скачивать файлы