Кулак легенды / Fists of Legend (Кан У Сок / Kang Woo-Suk) [2013, Корея Южная, Боевик, HDRip] VO (den904)

Ответить на тему
 
Автор Сообщение

user ®

Стаж: 11 лет

Сообщений: 15151

Пост Пост: #1 от 13-Окт-2013 22:25

[Цитировать]

Кулак легенды / Fists of Legend
Страна: Корея Южная
Жанр: Боевик
Год выпуска: 2013
Продолжительность: 02:33:17
Перевод: Одноголосый закадровый [den904]
Cубтитры: нет
Оригинальная аудиодорожка: нет
Режиссер: Кан У Сок / Kang Woo-Suk
В ролях: Хван Чжон Мин, Ю Чжун Сан, Ли Ё Вон, Чжон Ун Ин, Кан Сон Чжин, Пак Чон Мин
Описание: Сон Чжин-Хо, Им Док-Гю, Ли Сан-Хун и Син Чже-Сок - лучшие друзья, этих прекрасных бойцов, держащих в страхе весь район и школу, прозвали "легендами". Но, все когда-нибудь кончается, закончились и для "легенд" прекрасные времена, один случай привел их в тюрьму. Чжин-Хо быстро вышел из тюрьмы с помощью богатых родителей, а остальным не повезло. Спустя несколько лет, работающий в магазине лапши Док-Гю получает предложение участвовать в телевизионном реалити-шоу "Реальные бои" ("Бои без правил"). Мужчина соглашается, ведь ему очень нужны деньги для погашения долгов после аварии с участием его дочери, а сумма выигрыша составляет двадцать миллионов вонн. Главное условие шоу - участниками должны быть самые обычные люди, и Док-Гю узнает, что его противниками будут остальные "легенды". Что победит: дружба или жажда денег?


Сэмпл: http://multi-up.com/912881
Качество видео: HDRip [исх. BDRip 720p]
Формат видео: AVI
Видео: 720x304 (2.37:1), 23.976 fps, XviD build 50 ~1159 kbps avg, 0.22 bit/pixel
Аудио: 48 kHz, AC3 Dolby Digital, 2/0 (L,R) ch, ~192.00 kbps avg

MediaInfo

Общее
Полное имя : S:\Фильмы\Кулак легенды. 2013. HDRip (AleksSin).avi
Формат : AVI
Формат/Информация : Audio Video Interleave
Размер файла : 1,46 Гбайт
Продолжительность : 2 ч. 33 м.
Общий поток : 1360 Кбит/сек
Программа кодирования : VirtualDubMod 1.5.10.3 | www.virtualdub-fr.org || (build 2550/release)
Библиотека кодирования : VirtualDubMod build 2550/release
Видео
Идентификатор : 0
Формат : MPEG-4 Visual
Профиль формата : Advanced Simple@L5
Параметр BVOP формата : 2
Параметр QPel формата : Нет
Параметр GMC формата : Без точки перехода
Параметр матрицы формата : Default (H.263)
Идентификатор кодека : XVID
Идентификатор кодека/Подсказка : XviD
Продолжительность : 2 ч. 33 м.
Битрейт : 1159 Кбит/сек
Ширина : 720 пикс.
Высота : 304 пикс.
Соотношение сторон : 2,35:1
Частота кадров : 23,976 кадр/сек
Цветовое пространство : YUV
Подвыборка цветности : 4:2:0
Битовая глубина : 8 бит
Тип развёртки : Прогрессивная
Метод сжатия : С потерями
Бит/(Пиксели*Кадры) : 0.221
Размер потока : 1,24 Гбайт (85%)
Библиотека кодирования : XviD 1.2.1 (UTC 2008-12-04)
Аудио
Идентификатор : 1
Формат : AC-3
Формат/Информация : Audio Coding 3
Расширение режима : CM (complete main)
Идентификатор кодека : 2000
Продолжительность : 2 ч. 33 м.
Вид битрейта : Постоянный
Битрейт : 192 Кбит/сек
Каналы : 2 канала
Расположение каналов : Front: L R
Частота : 48,0 КГц
Битовая глубина : 16 бит
Метод сжатия : С потерями
Размер потока : 211 Мбайт (14%)
Выравнивание : Разделение по промежуткам
Продолжительность промежутка : 42 мс. (1,00 видеокадр)
Время предзагрузки промежутка : 500 ms

Скриншот c названием фильма

Скриншоты

Скачать

Скачать торрент! Кулак легенды / Fists of Legend (Кан У Сок / Kang Woo-Suk) [2013, Корея Южная, Боевик, HDRip] VO (den904)

Как скачивать? · Что такое торрент? · Рейтинг и ограничения

Сайт не распространяет и не хранит электронные версии произведений, а лишь предоставляет доступ к создаваемому пользователями каталогу ссылок на торрент-файлы, которые содержат только списки хеш-сумм

[Профиль] [ЛС]
Показать сообщения:    
Ответить на тему

Текущее время: Сегодня 10:53

Часовой пояс: GMT + 4



Вы не можете начинать темы
Вы не можете отвечать на сообщения
Вы не можете редактировать свои сообщения
Вы не можете удалять свои сообщения
Вы не можете голосовать в опросах
Вы не можете прикреплять файлы к сообщениям
Вы не можете скачивать файлы