Соседи по разводу (Михаил Херсонский) [2013, Комедия, мелодрама, SATRip]

Ответить на тему
 
Автор Сообщение

user ®

Стаж: 7 лет 7 месяцев

Сообщений: 20008

Пост Пост: #1 от 13-Окт-2013 22:25

[Цитировать]

Соседи по разводу (Михаил Херсонский) [2013, Комедия, мелодрама, SATRip]- Год выпуска: 2013
Производство: Россия, Телеканал "Россия 1", Кинокомпания УПС
Жанр: Комедия, мелодрама
Продолжительность: 01:28:56
Субтитры: Нет
Режиссёр: Михаил Херсонский
В ролях: Анна Ардова, Леонид Громов, Владимир Фоков, Алексей Федотов, Ольга Кирсанова-Миропольская, Геннадий Смирнов, Сергей Бызгу-Описание: Рита и Сергей - бывшие супруги. Живя в одной квартире, оба лелеют одну мечту - поскорее разменять ее и разъехаться. Конфликт разрастается. Дочь Катя в этой партизанской войне занимает позицию наблюдателя, надеясь на то, что родители, как взрослые, разумные люди, разберутся сами. Муж Кати Славик по воле случая вынужден поселиться у враждующих супругов.-Сэмпл
Rip: Genesis
Реклама: Отсутствует-Формат: AVI
Качество: SATRip
Видео кодек: DivX 5
Аудио кодек: MP3
Видео: DivX 5, 2055 Кбит/с, 720x400, 8 bits
Аудио: MP2, 48.0 KHz, 2 ch, 192 Kbps, 8 bits

MI:

General
Complete name : F:\Загрузки\Соседи по разводу. 2013. SАТRip.avi
Format : AVI
Format/Info : Audio Video Interleave
File size : 1.37 GiB
Duration : 1h 28mn
Overall bit rate : 2 203 Kbps
Writing application : VirtualDubModRus 1.5.10.1 (build 2439/release)
Writing library : VirtualDubMod build 2439/release
Video
ID : 0
Format : MPEG-4 Visual
Format settings, BVOP : Yes
Format settings, QPel : No
Format settings, GMC : No warppoints
Format settings, Matrix : Default (H.263)
Codec ID : DX50
Codec ID/Hint : DivX 5
Duration : 1h 28mn
Bit rate : 2 002 Kbps
Width : 720 pixels
Height : 400 pixels
Display aspect ratio : 16:9
Frame rate : 25.000 fps
Color space : YUV
Chroma subsampling : 4:2:0
Bit depth : 8 bits
Scan type : Progressive
Compression mode : Lossy
Bits/(Pixel*Frame) : 0.278
Stream size : 1.24 GiB (91%)
Writing library : DivX 6.8.5 (UTC 2009-08-20)
Audio
ID : 1
Format : MPEG Audio
Format version : Version 1
Format profile : Layer 2
Codec ID : 50
Duration : 1h 28mn
Bit rate mode : Constant
Bit rate : 192 Kbps
Channel count : 2 channels
Sampling rate : 48.0 KHz
Compression mode : Lossy
Stream size : 122 MiB (9%)
Alignment : Aligned on interleaves
Interleave, duration : 40 ms (1.00 video frame)
Interleave, preload duration : 504 ms

Скриншоты:

Скриншот с названием фильма:

Скачать

Скачать торрент!

Как скачивать? · Что такое торрент? · Рейтинг и ограничения

Сайт не распространяет и не хранит электронные версии произведений, а лишь предоставляет доступ к создаваемому пользователями каталогу ссылок на торрент-файлы, которые содержат только списки хеш-сумм

[Профиль] [ЛС]
Показать сообщения:    
Ответить на тему

Текущее время: Сегодня 18:32

Часовой пояс: GMT + 4



Вы не можете начинать темы
Вы не можете отвечать на сообщения
Вы не можете редактировать свои сообщения
Вы не можете удалять свои сообщения
Вы не можете голосовать в опросах
Вы не можете прикреплять файлы к сообщениям
Вы не можете скачивать файлы