Когда Гарри встретил Салли / When Harry Met Sally... (Роб Райнер / Rob Reiner) [1989, США, драма, мелодрама, комедия, BDRip 1080p] MVO + DVO + AVO + Ukr + Original + Sub (Rus, Ukr, Eng)

Ответить на тему
 
Автор Сообщение

user ®

Стаж: 7 лет 7 месяцев

Сообщений: 20008

Пост Пост: #1 от 13-Окт-2013 19:15

[Цитировать]

Когда Гарри встретил Салли / When Harry Met Sally...«Can men and women be friends or does always sex get in the way?»
-
Год выпуска: 1989
Страна: США
Жанр: драма, мелодрама, комедия
Продолжительность: 01:35:31-Перевод:
•Профессиональный (многоголосый закадровый) 20th Century Fox
•Профессиональный (двухголосый закадровый) ФортунаФильм
•Авторский (одноголосый закадровый) А.Михалёв
Оригинальная аудиодорожка: английский
Cубтитры: русские х2, украинские, английские-Режиссер: Роб Райнер / Rob Reiner
В ролях: Билли Кристал, Мег Райан, Кэрри Фишер, Бруно Кёрби, Стивен Форд, Лиза Джейн Перски, Мишель Никастро, Гретхен Палмер, Роберт Алан Бойт, Дэвид Бёрдик
Описание: Гарри и Салли знакомы со времен сотворения мира. Они вместе учились, приходят друг другу на выручку в любых жизненных передрягах, помогают в поисках близкого человека. Даже когда они теряют друг друга из виду, судьба сводит их снова и снова. Они лучшие друзья уже тысячу лет. Но их дружба постоянно находится под угрозой. Обоих настойчиво мучает вопрос: не следует ли им стать больше, чем друзьями?
Могут ли мужчина и женщина дружить по-настоящему? Или такая дружба неминуемо рано или поздно заканчивается более тесными отношениями?- -Тип релиза: BDRip 1080p
Контейнер: MKV
Видео: MPEG-4 AVC Video, 1908x1040p, High@L4.1, 23.976 fps, ~16.0 Mbps
Аудио#1: Русский, DTS 5.1, 48 kHz, 24 bits, 768 kbps | MVO Blu-ray
Аудио#2: Русский, AC3 2.0, 48 kHz, 16 bits, 192 kbps | DVO ФортунаФильм
Аудио#3: Русский, AC3 2.0, 48 kHz, 16 bits, 192 kbps | AVO А.Михалёв
Аудио#4: Українська, AC3 5.1, 48 kHz, 16 bits, 448 kbps | DVO 1+1
Аудио#5: English, DTS 5.1, 48 kHz, 24 bits, 1509 kbps | Original
Формат субтитров: softsub (SRT)-
-

Ripped by wulaoda - thx!

Код:
RELEASE.NAME....: When.Harry.Met.Sally.1989.1080p.BluRay.DTS.x264-HDS
RELEASE.TIME...: UTC 2013-10-06 06:53:12
IMDB.LINK......: http://www.imdb.com/title/tt0098635/
IMDB.RATING....: 7.7/10
RUN.TIME.......: 1h 35mn 31s
SIZE...........: 11.3 GiB
CONTAINER......: Matroska
VIDEO.CODEC....: AVC High@L4.1
FRAME.RATE.....: 23.976 fps
BIT.RATE.......: 16000 kpbs
RESOLUTION.....: 1908 x 1040
ASPECT.RATIO...: 16/9 : 1
AUDIO..........: English DTS 5.1 1510 kbps
RIP.SOURCE.....: When.Harry.Met.Sally.1989.Blu-Ray.1080P.H264.DTS-HDMA.-george.c
RIPPER.........: wulaoda@HDS

Source(31995 kbps) ---------------------- VS ------------ HDS (16000 kbps) ----------- VS ----------------------- CRiSC(14517 kbps)

MediaInfo

Код:
General
Unique ID : 208029640718351320068083673774063793799 (0x9C810D2B09C01CF287F0FF4DD9A6B687)
Complete name : Q:\Movies\When.Harry.Met.Sally.1989.1080p.BluRay.DTS.x264-HDS.Rus.Ukr.Eng.mkv
Format : Matroska
Format version : Version 4 / Version 2
File size : 12.7 GiB
Duration : 1h 35mn
Overall bit rate : 19.1 Mbps
Encoded date : UTC 2013-10-12 19:53:18
Writing application : mkvmerge v6.0.0 ('Coming Up For Air') built on Jan 20 2013 09:52:00
Writing library : libebml v1.3.0 + libmatroska v1.4.0
Video
ID : 1
Format : AVC
Format/Info : Advanced Video Codec
Format profile : High@L4.1
Format settings, CABAC : Yes
Format settings, ReFrames : 4 frames
Codec ID : V_MPEG4/ISO/AVC
Duration : 1h 35mn
Bit rate : 16.0 Mbps
Width : 1 908 pixels
Height : 1 040 pixels
Display aspect ratio : 1.85:1
Frame rate mode : Constant
Frame rate : 23.976 fps
Color space : YUV
Chroma subsampling : 4:2:0
Bit depth : 8 bits
Scan type : Progressive
Bits/(Pixel*Frame) : 0.336
Stream size : 10.4 GiB (82%)
Writing library : x264 core 133 r2334 a3ac64b
Encoding settings : cabac=1 / ref=4 / deblock=1:-3:-3 / analyse=0x3:0x133 / me=tesa / subme=11 / psy=1 / psy_rd=1.00:0.00 / mixed_ref=1 / me_range=32 / chroma_me=1 / trellis=2 / 8x8dct=1 / cqm=0 / deadzone=21,11 / fast_pskip=0 / chroma_qp_offset=-2 / threads=6 / lookahead_threads=1 / sliced_threads=0 / nr=0 / decimate=0 / interlaced=0 / bluray_compat=0 / constrained_intra=0 / bframes=12 / b_pyramid=2 / b_adapt=2 / b_bias=0 / direct=3 / weightb=1 / open_gop=0 / weightp=2 / keyint=250 / keyint_min=23 / scenecut=40 / intra_refresh=0 / rc=2pass / mbtree=0 / bitrate=16000 / ratetol=1.0 / qcomp=0.60 / qpmin=0 / qpmax=69 / qpstep=4 / cplxblur=20.0 / qblur=0.5 / ip_ratio=1.40 / pb_ratio=1.30 / aq=1:0.80
Language : English
Default : Yes
Forced : No
Audio #1
ID : 2
Format : DTS
Format/Info : Digital Theater Systems
Mode : 16
Format settings, Endianness : Big
Codec ID : A_DTS
Duration : 1h 35mn
Bit rate mode : Constant
Bit rate : 768 Kbps
Channel(s) : 6 channels
Channel positions : Front: L C R, Side: L R, LFE
Sampling rate : 48.0 KHz
Bit depth : 24 bits
Compression mode : Lossy
Stream size : 525 MiB (4%)
Title : МVO 20th Century Fox
Language : Russian
Default : Yes
Forced : No
Audio #2
ID : 3
Format : AC-3
Format/Info : Audio Coding 3
Mode extension : CM (complete main)
Format settings, Endianness : Big
Codec ID : A_AC3
Duration : 1h 35mn
Bit rate mode : Constant
Bit rate : 192 Kbps
Channel(s) : 2 channels
Channel positions : Front: L R
Sampling rate : 48.0 KHz
Bit depth : 16 bits
Compression mode : Lossy
Stream size : 131 MiB (1%)
Title : DVO ФортунаФильм
Language : Russian
Default : No
Forced : No
Audio #3
ID : 4
Format : AC-3
Format/Info : Audio Coding 3
Mode extension : CM (complete main)
Format settings, Endianness : Big
Codec ID : A_AC3
Duration : 1h 35mn
Bit rate mode : Constant
Bit rate : 192 Kbps
Channel(s) : 2 channels
Channel positions : Front: L R
Sampling rate : 48.0 KHz
Bit depth : 16 bits
Compression mode : Lossy
Stream size : 131 MiB (1%)
Title : AVO Михалев
Language : Russian
Default : No
Forced : No
Audio #4
ID : 5
Format : AC-3
Format/Info : Audio Coding 3
Mode extension : CM (complete main)
Format settings, Endianness : Big
Codec ID : A_AC3
Duration : 1h 35mn
Bit rate mode : Constant
Bit rate : 448 Kbps
Channel(s) : 6 channels
Channel positions : Front: L C R, Side: L R, LFE
Sampling rate : 48.0 KHz
Bit depth : 16 bits
Compression mode : Lossy
Delay relative to video : 1s 120ms
Stream size : 306 MiB (2%)
Title : DVO 1+1
Language : Ukrainian
Default : No
Forced : No
Audio #5
ID : 6
Format : DTS
Format/Info : Digital Theater Systems
Mode : 16
Format settings, Endianness : Big
Codec ID : A_DTS
Duration : 1h 35mn
Bit rate mode : Constant
Bit rate : 1 509 Kbps
Channel(s) : 6 channels
Channel positions : Front: L C R, Side: L R, LFE
Sampling rate : 48.0 KHz
Bit depth : 24 bits
Compression mode : Lossy
Stream size : 1.01 GiB (8%)
Title : Original
Language : English
Default : No
Forced : No
Text #1
ID : 7
Format : UTF-8
Codec ID : S_TEXT/UTF8
Codec ID/Info : UTF-8 Plain Text
Title : BD subs
Language : Russian
Default : Yes
Forced : No
Text #2
ID : 8
Format : UTF-8
Codec ID : S_TEXT/UTF8
Codec ID/Info : UTF-8 Plain Text
Title : R5 subs
Language : Russian
Default : No
Forced : No
Text #3
ID : 9
Format : UTF-8
Codec ID : S_TEXT/UTF8
Codec ID/Info : UTF-8 Plain Text
Title : R5 Ukr subs
Language : Ukrainian
Default : No
Forced : No
Text #4
ID : 10
Format : UTF-8
Codec ID : S_TEXT/UTF8
Codec ID/Info : UTF-8 Plain Text
Title : BD Eng subs
Language : English
Default : No
Forced : No

Screens, sample



Sample
Скачать

Скачать торрент!

Как скачивать? · Что такое торрент? · Рейтинг и ограничения

Сайт не распространяет и не хранит электронные версии произведений, а лишь предоставляет доступ к создаваемому пользователями каталогу ссылок на торрент-файлы, которые содержат только списки хеш-сумм

[Профиль] [ЛС]
Показать сообщения:    
Ответить на тему

Текущее время: Сегодня 21:58

Часовой пояс: GMT + 4



Вы не можете начинать темы
Вы не можете отвечать на сообщения
Вы не можете редактировать свои сообщения
Вы не можете удалять свои сообщения
Вы не можете голосовать в опросах
Вы не можете прикреплять файлы к сообщениям
Вы не можете скачивать файлы