Польская сибириада / Syberiada polska (Януш Заорский / Janusz Zaorski) [2013, Польша, Драма, мелодрама, военный, история, DVDRip] VO

Ответить на тему
 
Автор Сообщение

user ®

Стаж: 7 лет 7 месяцев

Сообщений: 20008

Пост Пост: #1 от 13-Окт-2013 19:15

[Цитировать]

Польская сибириада / Syberiada polska
-Страна: Польша, ATM Grupa S.A., Ekoland, Hero Collection, Heliograf, PAY Studio, Polish Film Institute, Satchwell Warszawa
Жанр: Драма, мелодрама, военный, история
Год выпуска: 2013
Продолжительность: 02:07:28
Перевод: Одноголосный закадровый
Режиссер: Януш Заорский / Janusz Zaorski
Cубтитры: нет-В ролях: Aдам Воронович, Соня Бохосевич, Андрий Журба, Павел Круч, Игорь Гнездилов, Наталья Рыбицка, Ян Пешек, Агнешка Вендлоха, Лера Гуляева, Дмитро Сова, Марчин Валевски, Уршула Грабовска, Александр Крижановский, Жанна Герасимова, Ярослав Груда, Лех Дыблик
Описание: Зимой 1940 года войска НКВД депортируют семью Яна Долины вместе с другими польскими жителями польской деревни в Восточную Сибирь, в таёжный трудовой лагерь. На их судьбы зрители смотрят глазами юного Сташека Долины, которого эти события заставляют рано повзрослеть и принимать решения, ставкой которых будет жизнь его близких. По мотивам повести Збигнева Домино "Польская Сибириада"-Сэмпл
Качество видео: DVDRip
Формат видео: AVI
Видео: Xvid 720x400 25fps, 1180 kb/s
Аудио: Dolby AC3 48000Hz 6ch 448kbps

MediaInfo

General
Format : AVI
Format/Info : Audio Video Interleave
File size : 1.46 GiB
Duration : 2h 7mn
Overall bit rate : 1 635 Kbps
Writing application : VirtualDubMod 1.5.10.3 | www.virtualdub-fr.org || (build 2550/release)
Writing library : VirtualDubMod build 2550/release
Video
ID : 0
Format : MPEG-4 Visual
Format profile : Advanced Simple@L5
Format settings, BVOP : Yes
Format settings, QPel : No
Format settings, GMC : No warppoints
Format settings, Matrix : Custom
Codec ID : XVID
Codec ID/Hint : XviD
Duration : 2h 7mn
Bit rate : 1 178 Kbps
Width : 720 pixels
Height : 400 pixels
Display aspect ratio : 16:9
Frame rate : 25.000 fps
Color space : YUV
Chroma subsampling : 4:2:0
Bit depth : 8 bits
Scan type : Progressive
Compression mode : Lossy
Bits/(Pixel*Frame) : 0.164
Stream size : 1.05 GiB (72%)
Writing library : XviD 1.2.1 (UTC 2008-12-04)
Audio
ID : 1
Format : AC-3
Format/Info : Audio Coding 3
Mode extension : CM (complete main)
Format settings, Endianness : Big
Codec ID : 2000
Duration : 2h 7mn
Bit rate mode : Constant
Bit rate : 448 Kbps
Channel count : 6 channels
Channel positions : Front: L C R, Side: L R, LFE
Sampling rate : 48.0 KHz
Bit depth : 16 bits
Compression mode : Lossy
Stream size : 408 MiB (27%)
Alignment : Split accross interleaves
Interleave, duration : 40 ms (1.00 video frame)
Interleave, preload duration : 500 ms

Скриншот c названием фильма

Скриншоты

Скачать

Скачать торрент!

Как скачивать? · Что такое торрент? · Рейтинг и ограничения

Сайт не распространяет и не хранит электронные версии произведений, а лишь предоставляет доступ к создаваемому пользователями каталогу ссылок на торрент-файлы, которые содержат только списки хеш-сумм

[Профиль] [ЛС]
Показать сообщения:    
Ответить на тему

Текущее время: Сегодня 08:26

Часовой пояс: GMT + 4



Вы не можете начинать темы
Вы не можете отвечать на сообщения
Вы не можете редактировать свои сообщения
Вы не можете удалять свои сообщения
Вы не можете голосовать в опросах
Вы не можете прикреплять файлы к сообщениям
Вы не можете скачивать файлы