Русалочка: Начало истории Ариэль / The Little Mermaid: Ariel\'s Beginning (Пегги Холмс / Peggy Holmes) [2008 г., США, Австралия, мультфильм, фэнтези, семейный, BDRip-AVC] Dub + Original (Eng) + Sub (Rus, Eng)

Ответить на тему
 
Автор Сообщение

user ®

Стаж: 12 лет

Сообщений: 15145

Пост Пост: #1 от 13-Окт-2013 16:05

[Цитировать]

РусалочкаНачало истории Ариэль Год выпуска: 2008
Страна: США, Австралия
Жанр: мультфильм, фэнтези, семейный
Продолжительность: 01:17:31
Перевод: профессиональный полное дублирование Blu-ray CEE
Оригинал: английский
Cубтитры: русские, английские softsub (SRT)-Режиссёр: Пегги Холмс / Peggy Holmes-Роли озвучивали:
Джоди Бенсон (Светлана Светикова), Сэмюэл Э. Райт (Исмаил Зиядзаде), Джим Каммингс (Борис Клюев), Салли Филд (Ирина Пономарева), Паркер Горис (Томас Шлеккер), Тара Стронг (Юлия Черкасова), Дженнифер Хейл (Наталья Фищук), Грэй ДеЛисл (Полина Щербакова), Джефф Беннетт (Вячеслав Баранов), Кари Уолгрен, Лорелей Хилл Баттерз, Кевин Майкл Ричардсон, Роб Полсен, Морис ЛаМарш-Описание:
Представьте далекие времена, задолго до того, как Ариэль познакомилась с Принцем Эриком и вышла на сушу — времена, когда музыка была еще под запретом в подводном королевсте Атлантики. Разрываясь между семейными обязанностями и любовью к музыке, Ариэль должна сделать самый трудный выбор в своей жизни.-
  • Мультфильм является предысторией мультфильма 1989 года «Русалочка».
  • «Русалочка: Начало истории Ариэль» (англ. «The Little Mermaid: Ariel's Beginning») — полнометражный мультфильм The Walt Disney Company, вышедший в 2008 году сразу на DVD.

-
-IMDB: 6.3/10 (2 824 votes)
Кинопоиск: 7.263 (1794 )- -Сэмпл--Качество видео: BDRip-AVC исходник Blu-ray disc 1080p/HDClub
Видео кодек: H.264
Аудио кодек: AC3
Видео: 1024 x 576 (1.77 :1), 23.976 fps, 1795 Кбит/сек, 0.13 bit/pixel
Аудио 1: 48 kHz, AC3 Dolby Digital, 3/2 (L,C,R,l,r) + LFE ch, ~448.00 kbps avg дубляж
Аудио 2: 48 kHz, AC3 Dolby Digital, 3/2 (L,C,R,l,r) + LFE ch, ~448.00 kbps avg оригинал

Скриншоты



MediaInfo | x264

x264

x264 [info]: frame I:1098 Avg QP:14.80 size: 60231
x264 [info]: frame P:27057 Avg QP:17.60 size: 17896
x264 [info]: frame B:83350 Avg QP:18.91 size: 5909
x264 [info]: consecutive B-frames: 2.3% 2.6% 11.6% 47.3% 15.1% 10.0% 2.8% 4.3% 1.1% 0.6% 1.0% 0.1%
x264 [info]: mb I I16..4: 11.0% 53.2% 35.8%
x264 [info]: mb P I16..4: 1.4% 3.5% 3.2% P16..4: 30.1% 30.1% 9.8% 2.7% 0.5% skip:18.9%
x264 [info]: mb B I16..4: 0.2% 0.2% 0.3% B16..8: 29.0% 13.0% 2.8% direct: 1.7% skip:52.6% L0:48.1% L1:45.9% BI: 6.0%
x264 [info]: 8x8 transform intra:43.3% inter:27.7%
x264 [info]: direct mvs spatial:86.9% temporal:13.1%
x264 [info]: coded y,uvDC,uvAC intra: 65.6% 75.8% 58.2% inter: 8.0% 9.7% 6.1%
x264 [info]: i16 v,h,dc,p: 37% 13% 6% 43%
x264 [info]: i8 v,h,dc,ddl,ddr,vr,hd,vl,hu: 7% 9% 11% 10% 11% 10% 13% 11% 17%
x264 [info]: i4 v,h,dc,ddl,ddr,vr,hd,vl,hu: 10% 10% 11% 10% 13% 10% 12% 9% 14%
x264 [info]: i8c dc,h,v,p: 40% 32% 17% 11%
x264 [info]: Weighted P-Frames: Y:2.3% UV:1.9%
x264 [info]: ref P L0: 49.9% 7.2% 15.7% 7.2% 5.6% 4.5% 4.1% 2.2% 1.9% 1.5% 0.2% 0.0%
x264 [info]: ref B L0: 62.2% 16.3% 8.6% 4.2% 3.1% 2.4% 1.9% 0.9% 0.5%
x264 [info]: ref B L1: 90.7% 9.3%
General
Unique ID : 235725221801887605664400503592869667181 (0xB15706BDAA3BB427ABE4F2A49AC3A16D)
Complete name : D:\Rusalochka.Nachalo.Istorii.Ariel.2008.BDRip-AVC.mkv
Format : Matroska
Format version : Version 2
File size : 1.46 GiB
Duration : 1h 17mn
Overall bit rate mode : Variable
Overall bit rate : 2 686 Kbps
Encoded date : UTC 2013-10-13 09:47:49
Writing application : mkvmerge v5.8.0 ('No Sleep / Pillow') built on Sep 2 2012 15:37:04
Writing library : libebml v1.2.3 + libmatroska v1.3.0
Video
ID : 1
Format : AVC
Format/Info : Advanced Video Codec
Format profile : High@L4.1
Format settings, CABAC : Yes
Format settings, ReFrames : 10 frames
Codec ID : V_MPEG4/ISO/AVC
Duration : 1h 17mn
Bit rate mode : Variable
Bit rate : 1 795 Kbps
Maximum bit rate : 40.0 Mbps
Width : 1 024 pixels
Height : 576 pixels
Display aspect ratio : 16:9
Frame rate : 23.976 fps
Color space : YUV
Chroma subsampling : 4:2:0
Bit depth : 8 bits
Scan type : Progressive
Bits/(Pixel*Frame) : 0.127
Stream size : 967 MiB (65%)
Writing library : x264 core 133 r2334 a3ac64b
Encoding settings : cabac=1 / ref=10 / deblock=1:-2:-1 / analyse=0x3:0x133 / me=umh / subme=11 / psy=1 / psy_rd=0.80:0.00 / mixed_ref=1 / me_range=48 / chroma_me=1 / trellis=2 / 8x8dct=1 / cqm=0 / deadzone=21,11 / fast_pskip=0 / chroma_qp_offset=-2 / threads=6 / lookahead_threads=1 / sliced_threads=0 / nr=0 / decimate=0 / interlaced=0 / bluray_compat=0 / constrained_intra=0 / bframes=11 / b_pyramid=2 / b_adapt=2 / b_bias=0 / direct=3 / weightb=1 / open_gop=0 / weightp=2 / keyint=240 / keyint_min=24 / scenecut=40 / intra_refresh=0 / rc_lookahead=60 / rc=2pass / mbtree=0 / bitrate=1795 / ratetol=1.0 / qcomp=0.70 / qpmin=0 / qpmax=69 / qpstep=4 / cplxblur=20.0 / qblur=0.5 / vbv_maxrate=50000 / vbv_bufsize=62500 / nal_hrd=none / ip_ratio=1.30 / pb_ratio=1.20 / aq=1:0.80
Default : Yes
Forced : No
Audio #1
ID : 2
Format : AC-3
Format/Info : Audio Coding 3
Mode extension : CM (complete main)
Codec ID : A_AC3
Duration : 1h 17mn
Bit rate mode : Constant
Bit rate : 448 Kbps
Channel(s) : 6 channels
Channel positions : Front: L C R, Side: L R, LFE
Sampling rate : 48.0 KHz
Bit depth : 16 bits
Compression mode : Lossy
Stream size : 249 MiB (17%)
Title : Dub
Language : Russian
Default : Yes
Forced : No
Audio #2
ID : 3
Format : AC-3
Format/Info : Audio Coding 3
Mode extension : CM (complete main)
Codec ID : A_AC3
Duration : 1h 17mn
Bit rate mode : Constant
Bit rate : 448 Kbps
Channel(s) : 6 channels
Channel positions : Front: L C R, Side: L R, LFE
Sampling rate : 48.0 KHz
Bit depth : 16 bits
Compression mode : Lossy
Stream size : 249 MiB (17%)
Title : Original
Language : English
Default : No
Forced : No
Text #1
ID : 4
Format : UTF-8
Codec ID : S_TEXT/UTF8
Codec ID/Info : UTF-8 Plain Text
Language : Russian
Default : No
Forced : No
Text #2
ID : 5
Format : UTF-8
Codec ID : S_TEXT/UTF8
Codec ID/Info : UTF-8 Plain Text
Language : English
Default : No
Forced : No
Menu
00:00:00.000 : en:Chapter 01
00:02:42.745 : en:Chapter 02
00:05:40.214 : en:Chapter 03
00:10:02.643 : en:Chapter 04
00:15:24.256 : en:Chapter 05
00:19:06.061 : en:Chapter 06
00:24:00.272 : en:Chapter 07
00:26:22.664 : en:Chapter 08
00:29:00.029 : en:Chapter 09
00:33:38.891 : en:Chapter 10
00:37:39.215 : en:Chapter 11
00:41:25.107 : en:Chapter 12
00:44:33.504 : en:Chapter 13
00:48:04.548 : en:Chapter 14
00:52:25.433 : en:Chapter 15
00:55:21.776 : en:Chapter 16
01:00:26.622 : en:Chapter 17
01:04:42.753 : en:Chapter 18
01:06:58.013 : en:Chapter 19
01:09:24.702 : en:Chapter 20
01:10:43.238 : en:Chapter 21

FAQ по просмотру MKV/h.264/AAC

  • [url=http://***/forum/viewtopic.php?p=9255801#1]Смогу ли я запустить AVC фильм на своём компьютере?[/url]
  • [url=http://***/forum/viewtopic.php?p=9255801#2]Сампл из раздачи не воспроизводится/тормозит или отсутствует звук/изображение. Что делать?[/url]
  • [url=http://***/forum/viewtopic.php?p=9255801#3]Что такое H.264/AVC и зачем он нужен?[/url]
  • [url=http://***/forum/viewtopic.php?p=9255801#4]Что за дурацкий формат .MKV?[/url]
  • [url=http://***/forum/viewtopic.php?p=9255801#5]Почему MKV? Чем AVI хуже?[/url]
  • [url=http://***/forum/viewtopic.php?p=9255801#6]Не могу переключить/включить/выключить аудио/видео дорожки и/или субтитры. Что делать?[/url]
  • [url=http://***/forum/viewtopic.php?p=9255801#14]Как сделать так, чтобы по умолчанию при просмотре MKV файлов нужные/ненужные субтитры были включены/выключены, и/или сразу проигрывалась дорожка на нужном мне языке?[/url]
  • [url=http://***/forum/viewtopic.php?p=9255801#7]Будут ли фильмы в таком формате проигрываться на бытовых плеерах без компьютера?[/url]
  • [url=http://***/forum/viewtopic.php?p=9255801#8]Проигрываю фильм, а картинка очень сильно отличается от скринов/бледная/перенасыщенная. Что не так?[/url]
  • [url=http://***/forum/viewtopic.php?p=9255801#9]Можно ли сконвертировать AVC в DVD?[/url]
  • [url=http://***/forum/viewtopic.php?p=9255801#10]Почему сплюснута картинка / в характеристиках видео указано два разрешения / что такое анаморфное разрешение?[/url]
  • [url=http://***/forum/viewtopic.php?p=9255801#169]Зачем релизёры обманывают качающих и пишут в заголовке 720p/1080p, а на самом деле раздают видеоматериалы в непонятных разрешениях?[/url]
  • [url=http://***/forum/viewtopic.php?p=9255801#11]Можно ли вывести многоканальный FLAC/AAC-звук на внешний ресивер?[/url]
  • [url=http://***/forum/viewtopic.php?p=9255801#12]У меня 2-канальная акустика/стереонаушники. При просмотре видео почти не слышно/совсем не слышно речь/разговоры, играют только фоновые звуки. Что делать?[/url]
  • [url=http://***/forum/viewtopic.php?p=9255801#coreweightp]У меня стоит CoreAVC версии 1.9.5 или младше. При воспроизведении картинка рассыпается на квадраты и разноцветные пятна. Кривой рип?[/url]
  • [url=http://***/forum/viewtopic.php?p=9255801#13]Всё прочитал(-а), решения своей проблемы не нашёл(-шла)/не смог(-ла) разобраться. Что делать?[/url]
Скачать

Скачать торрент! Русалочка: Начало истории Ариэль / The Little Mermaid: Ariel\'s Beginning (Пегги Холмс / Peggy Holmes) [2008 г., США, Австралия, мультфильм, фэнтези, семейный, BDRip-AVC] Dub + Original (Eng) + Sub (Rus, Eng)

Как скачивать? · Что такое торрент? · Рейтинг и ограничения

Сайт не распространяет и не хранит электронные версии произведений, а лишь предоставляет доступ к создаваемому пользователями каталогу ссылок на торрент-файлы, которые содержат только списки хеш-сумм

[Профиль] [ЛС]
Показать сообщения:    
Ответить на тему

Текущее время: Сегодня 21:20

Часовой пояс: GMT + 4



Вы не можете начинать темы
Вы не можете отвечать на сообщения
Вы не можете редактировать свои сообщения
Вы не можете удалять свои сообщения
Вы не можете голосовать в опросах
Вы не можете прикреплять файлы к сообщениям
Вы не можете скачивать файлы