Караульный пост 506 / Сторожевой пост / The Guard Post: GP506 / G.P. 506 (Су-Чанг Куенг / Su-Chang Kong) [2008, Южная Корея, триллер, ужасы, HDRip] AVO (Ю.Сербин)

Ответить на тему
 
Автор Сообщение

user ®

Стаж: 11 лет

Сообщений: 15151

Пост Пост: #1 от 13-Окт-2013 16:05

[Цитировать]

Караульный пост 506 / Сторожевой пост / The Guard Post: GP506 / G.P. 506
Страна: Южная Корея
Жанр: триллер, ужасы
Год выпуска: 2008
Продолжительность: 02:01:05
Перевод: Авторский (одноголосый закадровый) Ю.Сербин
Cубтитры: нет
Оригинальная аудиодорожка: нет
Режиссер: Су-Чанг Куенг / Su-Chang Kong
В ролях: Чо Хён-Джэй, Йанг-Хунь Лии, Джинг-Вунг Джо, Кью-Хван Чой
Описание: Когда отряд Караульного поста 506 не вышел на связь раз в полчаса, как обычно, власти заволновались… На этот пост прибывает разведывательный отряд, чтобы разобраться, что там случилось…
Сэмпл: http://multi-up.com/912666
Качество видео:HDRip
Формат видео: AVI
Видео: 704x384 (1.83:1), 24.000 fps, XviD build 65 ~1527 kbps avg, 0.23 bit/pixel
Аудио: 48 kHz, AC3 Dolby Digital, 2/0 (L,R) ch, ~192 kbps

MediaInfo

Complete name : The Guard Post GP506 (2008).avi
Format : AVI
Format/Info : Audio Video Interleave
File size : 1.46 GiB
Duration : 2h 1mn
Overall bit rate : 1 729 Kbps
Writing application : VirtualDubMod 1.5.10.3 | www.virtualdub-fr.org || (build 2550/release)
Writing library : VirtualDubMod build 2550/release
Video
ID : 0
Format : MPEG-4 Visual
Format profile : Advanced Simple@L5
Format settings, BVOP : 1
Format settings, QPel : No
Format settings, GMC : No warppoints
Format settings, Matrix : Default (H.263)
Codec ID : XVID
Codec ID/Hint : XviD
Duration : 2h 1mn
Bit rate : 1 528 Kbps
Width : 704 pixels
Height : 384 pixels
Display aspect ratio : 1.85:1
Frame rate : 24.000 fps
Color space : YUV
Chroma subsampling : 4:2:0
Bit depth : 8 bits
Scan type : Progressive
Compression mode : Lossy
Bits/(Pixel*Frame) : 0.235
Stream size : 1.29 GiB (88%)
Writing library : XviD 65
Audio
ID : 1
Format : AC-3
Format/Info : Audio Coding 3
Mode extension : CM (complete main)
Format settings, Endianness : Big
Codec ID : 2000
Duration : 2h 1mn
Bit rate mode : Constant
Bit rate : 192 Kbps
Channel(s) : 2 channels
Channel positions : Front: L R
Sampling rate : 48.0 KHz
Bit depth : 16 bits
Compression mode : Lossy
Stream size : 166 MiB (11%)
Alignment : Split accross interleaves
Interleave, duration : 42 ms (1.00 video frame)
Interleave, preload duration : 500 ms

Скриншоты

Скачать

Скачать торрент! Караульный пост 506 / Сторожевой пост / The Guard Post: GP506 / G.P. 506 (Су-Чанг Куенг / Su-Chang Kong) [2008, Южная Корея, триллер, ужасы, HDRip] AVO (Ю.Сербин)

Как скачивать? · Что такое торрент? · Рейтинг и ограничения

Сайт не распространяет и не хранит электронные версии произведений, а лишь предоставляет доступ к создаваемому пользователями каталогу ссылок на торрент-файлы, которые содержат только списки хеш-сумм

[Профиль] [ЛС]
Показать сообщения:    
Ответить на тему

Текущее время: Сегодня 14:23

Часовой пояс: GMT + 4



Вы не можете начинать темы
Вы не можете отвечать на сообщения
Вы не можете редактировать свои сообщения
Вы не можете удалять свои сообщения
Вы не можете голосовать в опросах
Вы не можете прикреплять файлы к сообщениям
Вы не можете скачивать файлы