Кадры / The Internship (Шон Леви / Shawn Levy) [2013, США, комедия, BDRip 1080p] [Расширенная версия / Unrated] Dub + Dub (Ukr) + Original Eng + Sub Rus, Ukr, Eng

Ответить на тему
 
Автор Сообщение

user ®

Стаж: 7 лет 7 месяцев

Сообщений: 20008

Пост Пост: #1 от 13-Окт-2013 16:05

[Цитировать]

Кадры / The Internship [Расширенная версия / Unrated]- -Страна: США
Жанр: комедия
Год выпуска: 2013
Продолжительность: 02:05:01-Перевод: Профессиональный (дублированный)
Cубтитры: русские, украинские, английские
Оригинальная аудиодорожка: английский-Режиссер: Шон Леви / Shawn Levy-В ролях: Винс Вон, Оуэн Уилсон, Роуз Бирн, Макс Мингелла, Аасиф Мандви, Джош Бренер, Дилан О’Брайэн, Тия Сиркар, Тобит Рафаэль, Джош Гад, Пётр Иващенко, Илья Бледный, Даниил Эльдаров, Прохор Чеховской, Василиса Эльдарова-Описание: Билли и Ник всю жизнь занимаются продажами. Но новый компьютерный мир рушит их карьеру. Стараясь доказать, что они не отстали от жизни, они бросают вызов судьбе, получив желанную стажировку в компании Google вместе с командой лучших студентов колледжей. Но получить доступ в этот фантастический мир - это только половина дела. Сейчас им придется выдержать конкуренцию с самыми лучшими техническими гениями, чтобы доказать, что необходимость - это мать обновления.-Сэмпл: http://yadi.sk/d/OX63iFHPAoATh
Тип релиза: BDRip 1080p (WiKi)
Контейнер: MKV
Видео: H264 / 11021 kbps / 1920x816 / 23,976 fps / High Profile 4.1
Аудио #1: Русский дубляж / DTS / 5.1 / 768 kbps / 48 kHz
Аудио #2: Украинский дубляж / DTS / 5.1 / 768 kbps / 48 kHz
Аудио #3: Английский / DTS / 5.1 / 1536 kbps / 48 kHz
Аудио #4: Английский / AAC / 2.0 / 64 kbps / 48kHz (Commentary)
Формат субтитров: softsub (SRT)

MediaInfo

General
Unique ID : 219266250098401068673823170214507334137 (0xA4F524C897B8C2BBB6490D2D92C849F9)
Complete name : E:\Фільми\1080p\The.Internship.2013.UNRATED.1080p.BluRay.x264-WiKi.Rus.Ukr.Eng.mkv
Format : Matroska
Format version : Version 2
File size : 12.3 GiB
Duration : 2h 5mn
Overall bit rate : 14.1 Mbps
Movie name : XXXVIRUz
Encoded date : UTC 2013-10-12 09:20:08
Writing application : mkvmerge v3.4.0 ('Rapunzel') збірка від May 18 2010 22:32:11
Writing library : libebml v0.8.0 + libmatroska v0.9.0
Video
ID : 1
Format : AVC
Format/Info : Advanced Video Codec
Format profile : High@L4.1
Format settings, CABAC : Yes
Format settings, ReFrames : 5 frames
Codec ID : V_MPEG4/ISO/AVC
Duration : 2h 5mn
Nominal bit rate : 11.0 Mbps
Width : 1 920 pixels
Height : 816 pixels
Display aspect ratio : 2.35:1
Frame rate mode : Constant
Frame rate : 23.976 fps
Color space : YUV
Chroma subsampling : 4:2:0
Bit depth : 8 bits
Scan type : Progressive
Bits/(Pixel*Frame) : 0.293
Title : WiKi
Writing library : x264 core 136 r2348+704+51 d1baef6 tMod [8-bit@all X86_64]
Encoding settings : cabac=1 / ref=5 / deblock=1:-3:-3 / analyse=0x3:0x133 / me=umh / subme=11 / psy=1 / fade_compensate=0.00 / psy_rd=1.05:0.05 / mixed_ref=1 / me_range=64 / chroma_me=1 / trellis=2 / 8x8dct=1 / cqm=0 / deadzone=21,11 / fast_pskip=0 / chroma_qp_offset=-3 / threads=12 / lookahead_threads=2 / sliced_threads=0 / nr=0 / decimate=0 / interlaced=0 / bluray_compat=0 / constrained_intra=0 / fgo=0 / bframes=8 / b_pyramid=2 / b_adapt=2 / b_bias=0 / direct=3 / weightb=1 / open_gop=0 / weightp=2 / keyint=250 / keyint_min=23 / scenecut=40 / intra_refresh=0 / rc_lookahead=80 / rc=2pass / mbtree=0 / bitrate=11021 / ratetol=1.0 / qcomp=0.70 / qpmin=0:0:0 / qpmax=69:69:69 / qpstep=4 / cplxblur=20.0 / qblur=0.5 / vbv_maxrate=50000 / vbv_bufsize=50000 / nal_hrd=none / ip_ratio=1.40 / pb_ratio=1.30 / aq=1:0.90 / aq-sensitivity=10.00 / aq-factor=1.00:1.00:1.00 / aq2=0 / aq3=0
Language : English
Default : Yes
Forced : Yes
Matrix coefficients : BT.709
Audio #1
ID : 2
Format : DTS
Format/Info : Digital Theater Systems
Mode : 16
Format settings, Endianness : Big
Codec ID : A_DTS
Duration : 2h 5mn
Bit rate mode : Constant
Bit rate : 768 Kbps
Channel(s) : 6 channels
Channel positions : Front: L C R, Side: L R, LFE
Sampling rate : 48.0 KHz
Bit depth : 24 bits
Compression mode : Lossy
Stream size : 687 MiB (5%)
Title : DTS 5.1 @ 768 kb/s [BluRay EUR]
Language : Russian
Default : Yes
Forced : Yes
Audio #2
ID : 3
Format : DTS
Format/Info : Digital Theater Systems
Mode : 16
Format settings, Endianness : Big
Codec ID : A_DTS
Duration : 2h 5mn
Bit rate mode : Constant
Bit rate : 768 Kbps
Channel(s) : 6 channels
Channel positions : Front: L C R, Side: L R, LFE
Sampling rate : 48.0 KHz
Bit depth : 24 bits
Compression mode : Lossy
Stream size : 687 MiB (5%)
Title : DTS 5.1 @ 768 kb/s [BluRay EUR
Language : Ukrainian
Default : No
Forced : No
Audio #3
ID : 4
Format : DTS
Format/Info : Digital Theater Systems
Mode : 16
Format settings, Endianness : Big
Codec ID : A_DTS
Duration : 2h 5mn
Bit rate mode : Constant
Bit rate : 1 509 Kbps
Channel(s) : 6 channels
Channel positions : Front: L C R, Side: L R, LFE
Sampling rate : 48.0 KHz
Bit depth : 24 bits
Compression mode : Lossy
Delay relative to video : 11ms
Stream size : 1.32 GiB (11%)
Title : DTS 5.1 @ 1536 kb/s
Language : English
Default : No
Forced : No
Audio #4
ID : 5
Format : AAC
Format/Info : Advanced Audio Codec
Format profile : HE-AAC / LC
Codec ID : A_AAC
Duration : 2h 5mn
Channel(s) : 2 channels
Channel positions : Front: L R
Sampling rate : 48.0 KHz / 24.0 KHz
Compression mode : Lossy
Delay relative to video : 31ms
Title : Commentary
Language : English
Default : No
Forced : No
Text #1
ID : 6
Format : UTF-8
Codec ID : S_TEXT/UTF8
Codec ID/Info : UTF-8 Plain Text
Title : Full
Language : Russian
Default : No
Forced : No
Text #2
ID : 7
Format : UTF-8
Codec ID : S_TEXT/UTF8
Codec ID/Info : UTF-8 Plain Text
Title : Full
Language : Ukrainian
Default : No
Forced : No
Text #3
ID : 8
Format : UTF-8
Codec ID : S_TEXT/UTF8
Codec ID/Info : UTF-8 Plain Text
Title : Full
Language : English
Default : No
Forced : No

Скриншоты

Скачать

Скачать торрент!

Как скачивать? · Что такое торрент? · Рейтинг и ограничения

Сайт не распространяет и не хранит электронные версии произведений, а лишь предоставляет доступ к создаваемому пользователями каталогу ссылок на торрент-файлы, которые содержат только списки хеш-сумм

[Профиль] [ЛС]
Показать сообщения:    
Ответить на тему

Текущее время: Сегодня 03:49

Часовой пояс: GMT + 4



Вы не можете начинать темы
Вы не можете отвечать на сообщения
Вы не можете редактировать свои сообщения
Вы не можете удалять свои сообщения
Вы не можете голосовать в опросах
Вы не можете прикреплять файлы к сообщениям
Вы не можете скачивать файлы