Судная ночь / The Purge (Джеймс ДеМонако / James DeMonaco) [2013, США, Франция, триллер, ужасы, BDRip 1080p] Dub + Original (Eng) + Sub (Rus, Eng, Ukr)

Ответить на тему
 
Автор Сообщение

user ®

Стаж: 7 лет 7 месяцев

Сообщений: 20008

Пост Пост: #1 от 13-Окт-2013 16:05

[Цитировать]

Судная ночь / The Purge
Страна: США, Франция
Студия: Blumhouse Productions, Platinum Dunes, Universal International Pictures
Жанр: триллер, ужасы
Год выпуска: 2013
Продолжительность: 01:25:018
Перевод: профессиональный (дублированный) [Blu-ray CEE]
Оригинальная аудиодорожка: английская
Cубтитры: русские, английские, украинские
Режиссер: Джеймс ДеМонако / James DeMonaco
В ролях: Этан Хоук, Лина Хиди, Аделаида Кейн, Макс Буркхолдер, Эдвин Ходж, Тони Оллер, Риз Уэйкфилд, Джон Уэселкауч
Описание: Мир будущего — мир без преступности… безработицы… войн. И все это благодаря одной ночи в году, когда можно отправить на тот свет любого — злобного босса, шумных соседей, надоевших родственников. В Судную ночь дозволено все — главное дожить до рассвета.

Релиз: fanatus
Качество видео: BDRip 1080p
Исходник: The Purge 2013 CEE 1080p Bluray AVC DTS-HD MA 5.1 DVDSEED - Gogeta
Контейнер: MKV
Видео: MPEG-4 AVC, 18 Mbps , 1920x800 (2.40:1), 23.976 fps, 0.489 bit/pixel
Аудио 1: русский (DTS, 6 ch, 48 kHz, 755 kbps)
Аудио 2: английский (DTS, 6 ch, 48 kHz, 1510 kbps)
Формат субтитров: softsub (SRT)
Главы: есть

MediaInfo

General
Unique ID : 174231715848209095786201564485946256460 (0x8313CED150CEA8DF878661C23F912C4C)
Complete name : F:\The Purge.2013.x264.BDRip.1080p.fanatus.mkv
Format : Matroska
Format version : Version 2
File size : 12.1 GiB
Duration : 1h 25mn
Overall bit rate : 20.3 Mbps
Movie name : The Purge (2013) - fanatus
Encoded date : UTC 2013-10-12 18:41:31
Writing application : mkvmerge v3.4.0 ('Rapunzel') сборка от May 15 2010 09:38:20
Writing library : libebml v0.8.0 + libmatroska v0.9.0
Video
ID : 1
Format : AVC
Format/Info : Advanced Video Codec
Format profile : High@L4.1
Format settings, CABAC : Yes
Format settings, ReFrames : 5 frames
Codec ID : V_MPEG4/ISO/AVC
Duration : 1h 25mn
Bit rate : 18.0 Mbps
Width : 1 920 pixels
Height : 800 pixels
Display aspect ratio : 2.40:1
Frame rate : 23.976 fps
Color space : YUV
Chroma subsampling : 4:2:0
Bit depth : 8 bits
Scan type : Progressive
Bits/(Pixel*Frame) : 0.489
Stream size : 10.5 GiB (87%)
Title : The Purge (2013)
Writing library : x264 core 138 r2358kMod 9e941d1
Encoding settings : cabac=1 / ref=5 / deblock=1:-3:-3 / analyse=0x3:0x113 / me=tesa / subme=11 / psy=1 / fade_compensate=0.00 / psy_rd=1.00:0.20 / mixed_ref=1 / me_range=32 / chroma_me=1 / trellis=2 / 8x8dct=1 / cqm=0 / deadzone=21,11 / fast_pskip=0 / chroma_qp_offset=-3 / threads=16 / lookahead_threads=2 / sliced_threads=0 / nr=0 / decimate=0 / interlaced=0 / bluray_compat=0 / constrained_intra=0 / bframes=7 / b_pyramid=2 / b_adapt=2 / b_bias=0 / direct=3 / weightb=1 / open_gop=0 / weightp=2 / keyint=240 / keyint_min=23 / scenecut=40 / intra_refresh=0 / rc_lookahead=240 / rc=2pass / mbtree=1 / bitrate=18000 / ratetol=1.0 / qcomp=0.75 / qpmin=0 / qpmax=69 / qpstep=4 / cplxblur=20.0 / qblur=0.5 / vbv_maxrate=50000 / vbv_bufsize=62500 / nal_hrd=none / ip_ratio=1.30 / aq=3:0.70
Language : English
Default : Yes
Forced : No
Audio #1
ID : 2
Format : DTS
Format/Info : Digital Theater Systems
Codec ID : A_DTS
Duration : 1h 25mn
Bit rate mode : Constant
Bit rate : 755 Kbps
Channel(s) : 6 channels
Channel positions : Front: L C R, Side: L R, LFE
Sampling rate : 48.0 KHz
Bit depth : 24 bits
Compression mode : Lossy
Stream size : 460 MiB (4%)
Title : Dub
Language : Russian
Default : Yes
Forced : No
Audio #2
ID : 3
Format : DTS
Format/Info : Digital Theater Systems
Codec ID : A_DTS
Duration : 1h 25mn
Bit rate mode : Constant
Bit rate : 1 510 Kbps
Channel(s) : 6 channels
Channel positions : Front: L C R, Side: L R, LFE
Sampling rate : 48.0 KHz
Bit depth : 24 bits
Compression mode : Lossy
Stream size : 921 MiB (7%)
Title : Original
Language : English
Default : No
Forced : No
Text #1
ID : 4
Format : UTF-8
Codec ID : S_TEXT/UTF8
Codec ID/Info : UTF-8 Plain Text
Title : Full
Language : Russian
Default : No
Forced : No
Text #2
ID : 5
Format : UTF-8
Codec ID : S_TEXT/UTF8
Codec ID/Info : UTF-8 Plain Text
Title : Full
Language : English
Default : No
Forced : No
Text #3
ID : 6
Format : UTF-8
Codec ID : S_TEXT/UTF8
Codec ID/Info : UTF-8 Plain Text
Title : SDH
Language : English
Default : No
Forced : No
Text #4
ID : 7
Format : UTF-8
Codec ID : S_TEXT/UTF8
Codec ID/Info : UTF-8 Plain Text
Title : SDH Colored
Language : English
Default : No
Forced : No
Text #5
ID : 8
Format : UTF-8
Codec ID : S_TEXT/UTF8
Codec ID/Info : UTF-8 Plain Text
Title : Full
Language : Ukrainian
Default : No
Forced : No
Menu
00:00:00.000 : en:00:00:00.000
00:04:30.562 : en:00:04:30.562
00:07:24.402 : en:00:07:24.402
00:13:48.619 : en:00:13:48.619
00:18:24.103 : en:00:18:24.103
00:23:11.473 : en:00:23:11.473
00:28:13.859 : en:00:28:13.859
00:31:33.266 : en:00:31:33.266
00:35:42.182 : en:00:35:42.182
00:39:28.741 : en:00:39:28.741
00:44:37.508 : en:00:44:37.508
00:47:53.120 : en:00:47:53.120
00:50:33.447 : en:00:50:33.447
00:56:02.234 : en:00:56:02.234
01:00:20.283 : en:01:00:20.283
01:03:35.729 : en:01:03:35.729
01:07:09.776 : en:01:07:09.776
01:11:09.891 : en:01:11:09.891
01:16:01.807 : en:01:16:01.807
01:19:27.096 : en:01:19:27.096

x264 [info]

x264 [info]: 1920x800p 1:1 @ 24000/1001 fps (cfr)
x264 [info]: using SAR=1/1
x264 [info]: using cpu capabilities: MMX2 SSE2Fast SSSE3 SSE4.2 AVX
x264 [info]: profile High, level 4.1
x264 [info]: cabac=1 ref=5 deblock=1:-3:-3 analyse=0x3:0x113 me=tesa subme=11 psy=1 fade_compensate=0.00 psy_rd=1.00:0.20 mixed_ref=1 me_range=32 chroma_me=1 trellis=2 8x8dct=1 cqm=0 deadzone=21,11 fast_pskip=0 chroma_qp_offset=-3 threads=16 lookahead_threads=2 sliced_threads=0 nr=0 decimate=0 interlaced=0 bluray_compat=0 constrained_intra=0 bframes=7 b_pyramid=2 b_adapt=2 b_bias=0 direct=3 weightb=1 open_gop=0 weightp=2 keyint=240 keyint_min=23 scenecut=40 intra_refresh=0 rc_lookahead=240 rc=2pass mbtree=1 bitrate=18000 ratetol=1.0 qcomp=0.75 qpmin=0 qpmax=69 qpstep=4 cplxblur=20.0 qblur=0.5 vbv_maxrate=50000 vbv_bufsize=62500 nal_hrd=none ip_ratio=1.30 aq=3:0.70
x264 [info]: frame I:717 Avg QP:15.73 size:220742
x264 [info]: frame P:27837 Avg QP:17.27 size:107908
x264 [info]: frame B:94158 Avg QP:17.59 size: 88746
x264 [info]: consecutive B-frames: 3.0% 3.9% 11.5% 6.7% 13.5% 56.0% 4.8% 0.6%
x264 [info]: mb I I16..4: 23.9% 65.3% 10.8%
x264 [info]: mb P I16..4: 3.1% 22.1% 1.5% P16..4: 27.0% 33.5% 11.9% 0.0% 0.0% skip: 1.0%
x264 [info]: mb B I16..4: 1.0% 5.8% 0.4% B16..8: 35.9% 26.1% 5.5% direct:12.2% skip:13.2% L0:46.2% L1:41.7% BI:12.0%
x264 [info]: 8x8 transform intra:80.9% inter:41.3%
x264 [info]: direct mvs spatial:97.1% temporal:2.9%
x264 [info]: coded y,uvDC,uvAC intra: 96.9% 95.9% 90.6% inter: 55.1% 61.0% 40.7%
x264 [info]: i16 v,h,dc,p: 6% 4% 25% 65%
x264 [info]: i8 v,h,dc,ddl,ddr,vr,hd,vl,hu: 8% 8% 16% 10% 11% 11% 11% 12% 13%
x264 [info]: i4 v,h,dc,ddl,ddr,vr,hd,vl,hu: 8% 7% 6% 10% 15% 14% 14% 12% 14%
x264 [info]: i8c dc,h,v,p: 65% 10% 9% 15%
x264 [info]: Weighted P-Frames: Y:5.1% UV:2.1%
x264 [info]: ref P L0: 47.5% 4.6% 25.0% 11.2% 9.8% 1.9% 0.1%
x264 [info]: ref B L0: 68.7% 22.0% 7.6% 1.8%
x264 [info]: ref B L1: 88.2% 11.8%
x264 [info]: kb/s:18003.99
x264 [info]: encoded 122712 frames, 0.77 fps, 18003.99 kb/s, duration 44:20:37.24

Скриншот c названием фильма

Скриншоты

Скачать

Скачать торрент!

Как скачивать? · Что такое торрент? · Рейтинг и ограничения

Сайт не распространяет и не хранит электронные версии произведений, а лишь предоставляет доступ к создаваемому пользователями каталогу ссылок на торрент-файлы, которые содержат только списки хеш-сумм

[Профиль] [ЛС]
Показать сообщения:    
Ответить на тему

Текущее время: Сегодня 05:11

Часовой пояс: GMT + 4



Вы не можете начинать темы
Вы не можете отвечать на сообщения
Вы не можете редактировать свои сообщения
Вы не можете удалять свои сообщения
Вы не можете голосовать в опросах
Вы не можете прикреплять файлы к сообщениям
Вы не можете скачивать файлы