Громовые полицейские 2 / Thunder Cops 2 (Джефф Лау / Jeff Lau) [1989 г.,боевик, драма, триллер, DVDRip] VO

Ответить на тему
 
Автор Сообщение

user ®

Стаж: 13 лет

Сообщений: 15071

Пост Пост: #1 от 13-Окт-2013 12:55

[Цитировать]

Громовые полицейские 2 / Thunder Cops 2 Год выпуска: 1989
Страна: Гонконг
Жанр: боевик, драма, триллер
Продолжительность: 01:31:56
Перевод: Одноголосый закадровый - Акира
Субтитры: Нет
Режиссер: Джефф Лау / Jeff Lau
В ролях: Сандра Нг, Стивен Чоу, Ву Фунг, Джефф Лау, Санни Фанг, Шинг Фуй-Он, Энн Бриджуотер, Вонг Ау,Вонг Чи-Кеунг (3), Лам Сиу-Лау, Ло Хунг, Руби Вонг, Саймон Чеунг, Фан Винг-Ва, Хо Квок-Винг, Чан Юэнь-Кай, Чой Хин-Чеунг,Эдди Ко
Описание:Попытавшись вмешаться в полицейскую операцию своего отца (Эдди Ко), Цзе (Сандра Нг) невольно становится причиной его гибели – бандиту, которого тот пытался задержать, удалось скрыться, а сам он погиб от пули злодея. Теперь Цзе всецело посвятила себя мести – она начала двигаться по служебной лестнице в полиции, и теперь уже как никогда близка к убийце своего отца. Тот все еще торгует наркотиками, и в самое ближайшее время должна состояться сделка между ним и другим известным преступником...
Семпл
Качество: DVDRip
Формат: AVI
Видео кодек: XviD
Аудио кодек: AC3
Видео: 640 x 480 (1.333) , 23.976 fps, XviD MPEG-4, 1731 Кбит/сек
Аудио: #1 (Russian):AC-3 , 192 Кбит/сек , 2 канала, 48,0 КГц
Аудио: #2 (Chinese): AC-3 , 192 Кбит/сек , 2 канала, 48,0 КГц

MediaInfo

Формат : AVI
Формат/Информация : Audio Video Interleave
Размер файла : 1,37 Гбайт
Продолжительность : 1 ч. 32 м.
Общий поток : 2123 Кбит/сек
Программа кодирования : VirtualDubMod 1.5.4.1 (build 2178/release)
Библиотека кодирования : VirtualDubMod build 2178/release
Видео
Идентификатор : 0
Формат : MPEG-4 Visual
Профиль формата : Advanced Simple@L5
Параметр BVOP формата : 1
Параметр QPel формата : Нет
Параметр GMC формата : Без точки перехода
Параметр матрицы формата : Выборочная
Идентификатор кодека : XVID
Идентификатор кодека/Подсказка : XviD
Продолжительность : 1 ч. 32 м.
Битрейт : 1731 Кбит/сек
Ширина : 640 пикселей
Высота : 480 пикселей
Соотношение сторон : 4:3
Частота кадров : 23,976 кадра/сек
Цветовое пространство : YUV
Субдискретизация насыщенности : 4:2:0
Битовая глубина : 8 бит
Тип развёртки : Прогрессивная
Метод сжатия : С потерями
Бит/(Пиксели*Кадры) : 0.235
Размер потока : 1,11 Гбайт (82%)
Библиотека кодирования : XviD 64
Аудио #1
Идентификатор : 1
Формат : AC-3
Формат/Информация : Audio Coding 3
Расширение режима : CM (complete main)
Параметр Endianness формата : Big
Идентификатор кодека : 2000
Продолжительность : 1 ч. 32 м.
Вид битрейта : Постоянный
Битрейт : 192 Кбит/сек
Каналы : 2 канала
Расположение каналов : Front: L R
Частота : 48,0 КГц
Битовая глубина : 16 бит
Метод сжатия : С потерями
Размер потока : 126 Мбайт (9%)
Выравнивание : Разделение по промежуткам
Продолжительность промежутка : 96 мс. (2,30 видеокадра)
Время предзагрузки промежутка : 96 мс.
Язык : Russian
Аудио #2
Идентификатор : 2
Формат : AC-3
Формат/Информация : Audio Coding 3
Расширение режима : CM (complete main)
Параметр Endianness формата : Big
Идентификатор кодека : 2000
Продолжительность : 1 ч. 32 м.
Вид битрейта : Постоянный
Битрейт : 192 Кбит/сек
Каналы : 2 канала
Расположение каналов : Front: L R
Частота : 48,0 КГц
Битовая глубина : 16 бит
Метод сжатия : С потерями
Размер потока : 126 Мбайт (9%)
Выравнивание : Разделение по промежуткам
Продолжительность промежутка : 96 мс. (2,30 видеокадра)
Время предзагрузки промежутка : 96 мс.
Язык : Chinese

Доп.инфо

Рип сделан с DVD-5 программой Auto Gordian Knot.
DVDinfo
Title:
Size: 3.30 Gb ( 3 464 648 KBytes ) - DVD-5
Enabled regions: 1, 2, 3, 4, 5, 6
VTS_01 :
Play Length: 01:31:56
Video: NTSC 4:3 (720x480) VBR
Audio:
Russian (Dolby AC3, 2 ch)
Chinese (Dolby AC3, 2 ch)
Subtitles:
Russian
English

Скриншоты

Скачать

Скачать торрент! Громовые полицейские 2 / Thunder Cops 2 (Джефф Лау / Jeff Lau) [1989 г.,боевик, драма, триллер, DVDRip] VO

Как скачивать? · Что такое торрент? · Рейтинг и ограничения

Сайт не распространяет и не хранит электронные версии произведений, а лишь предоставляет доступ к создаваемому пользователями каталогу ссылок на торрент-файлы, которые содержат только списки хеш-сумм

[Профиль] [ЛС]
Показать сообщения:    
Ответить на тему

Текущее время: Сегодня 21:50

Часовой пояс: GMT + 4



Вы не можете начинать темы
Вы не можете отвечать на сообщения
Вы не можете редактировать свои сообщения
Вы не можете удалять свои сообщения
Вы не можете голосовать в опросах
Вы не можете прикреплять файлы к сообщениям
Вы не можете скачивать файлы