Пионовая беседка / The Peony Pavilion / Youyuan jingmeng / 遊園驚夢 (Йонфан / Yonfan) [2001, Гонконг, драма, TVRip] MVO (Культура)

Ответить на тему
 
Автор Сообщение

user ®

Стаж: 13 лет

Сообщений: 15071

Пост Пост: #1 от 13-Окт-2013 12:55

[Цитировать]

Пионовая беседка / The Peony Pavilion / Youyuan jingmeng / 遊園驚夢
Страна: Гонконг
Жанр: драма
Год выпуска: 2001
Продолжительность: 02:00:22
Перевод: Профессиональный (многоголосый закадровый) студия "Лексикон" по заказу "Камер-Тон-Медиа"
Cубтитры: нет
Оригинальная аудиодорожка: нет
Режиссер: Йонфан / Yonfan
В ролях: Джои Ван, Риэ Миядзава, Дэниэл Ву, Бриджит Лин, Йонфан, Чжиган Чжао
Описание: На дворе 30-е годы. Член богатого рода берет в жены красавицу Цуй Хуа, исполнительницу роли куртизанки в знаменитой китайской опере «Пионовая беседка». Цуй Хуа становится пятой женой богача. Отношения с мужем у нее весьма формальны, однако жизнь Цуй Хуа оказывается охваченной подлинной страстью — любовью к кузине Лань.
Лань — современная женщина, преподает в школе английский язык, почти все время носит мужские костюмы. Лань очарована красотой Цуй Хуа, обе женщины наслаждаются тонкой игрой отношений и чувств. Однако ситуация резко меняется, когда Лань неожиданно влюбляется в чиновника из министерства народного образования, присланного в школу. Чувство этой пары будет всепоглощающим, но быстротечным.
Качество видео: TVRip
Формат видео: AVI
Видео: MPEG4, XviD, 688x384 (16/9), 25.000 fps, 1 526 Kbps (0.231 bit/pixel)
Аудио: AC-3, 48.0 KHz, 2 ch, 192 Kbps, CBR

MediaInfo

Общее
Полное имя : K:\Пионовая беседка.avi
Формат : AVI
Формат/Информация : Audio Video Interleave
Размер файла : 1,45 Гбайт
Продолжительность : 2 ч. 0 м.
Общий поток : 1728 Кбит/сек
Название фильма : Пионовая беседка / The Peony Pavilion / Youyuan jingmeng (2001)
Режиссёр : miha2154
Правообладатель : специально для BitTorrent трекер *** (ex torrents.ru)
Видео
Идентификатор : 0
Формат : MPEG-4 Visual
Профиль формата : Advanced Simple@L5
Параметр BVOP формата : 2
Параметр QPel формата : Нет
Параметр GMC формата : Без точки перехода
Параметр матрицы формата : Default (MPEG)
Идентификатор кодека : XVID
Идентификатор кодека/Подсказка : XviD
Продолжительность : 2 ч. 0 м.
Битрейт : 1526 Кбит/сек
Ширина : 688 пикселей
Высота : 384 пикселя
Соотношение сторон : 16:9
Частота кадров : 25,000 кадров/сек
Цветовое пространство : YUV
Субдискретизация насыщенности : 4:2:0
Битовая глубина : 8 бит
Тип развёртки : Прогрессивная
Метод сжатия : С потерями
Бит/(Пиксели*Кадры) : 0.231
Размер потока : 1,28 Гбайт (88%)
Библиотека кодирования : XviD 1.1.0 (UTC 2005-11-22)
Аудио
Идентификатор : 1
Формат : AC-3
Формат/Информация : Audio Coding 3
Расширение режима : CM (complete main)
Параметр Endianness формата : Big
Идентификатор кодека : 2000
Продолжительность : 2 ч. 0 м.
Вид битрейта : Постоянный
Битрейт : 192 Кбит/сек
Каналы : 2 канала
Расположение каналов : Front: L R
Частота : 48,0 КГц
Битовая глубина : 16 бит
Метод сжатия : С потерями
Размер потока : 165 Мбайт (11%)
Выравнивание : Соединение по промежуткам
Продолжительность промежутка : 40 мс. (1,00 видеокадр)
Время предзагрузки промежутка : 512 мс.

Скриншоты


Скачать

Скачать торрент! Пионовая беседка / The Peony Pavilion / Youyuan jingmeng / 遊園驚夢 (Йонфан / Yonfan) [2001, Гонконг, драма, TVRip] MVO (Культура)

Как скачивать? · Что такое торрент? · Рейтинг и ограничения

Сайт не распространяет и не хранит электронные версии произведений, а лишь предоставляет доступ к создаваемому пользователями каталогу ссылок на торрент-файлы, которые содержат только списки хеш-сумм

[Профиль] [ЛС]
Показать сообщения:    
Ответить на тему

Текущее время: Сегодня 20:26

Часовой пояс: GMT + 4



Вы не можете начинать темы
Вы не можете отвечать на сообщения
Вы не можете редактировать свои сообщения
Вы не можете удалять свои сообщения
Вы не можете голосовать в опросах
Вы не можете прикреплять файлы к сообщениям
Вы не можете скачивать файлы