Восток / The East (Зал Батманглидж / Zal Batmanglij) [2013, США, Великобритания, триллер, драма, криминал, HDRip] MVO

Ответить на тему
 
Автор Сообщение

user ®

Стаж: 7 лет 7 месяцев

Сообщений: 20008

Пост Пост: #1 от 13-Окт-2013 12:55

[Цитировать]

Восток / The East- Страна: США, Великобритания
Жанр: триллер, драма, криминал
Год выпуска: 2013
Продолжительность: 01:56:07
Перевод: Профессиональный (многоголосый закадровый)
Cубтитры: нет-Режиссер: Зал Батманглидж / Zal Batmanglij
В ролях: Брит Марлинг, Александр Скарсгард, Эллен Пейдж, Тоби Кеббелл, Шайло Фернандес, Элдис Ходж, Даниэль МакДональд, Хиллари Бак, Патришия Кларксон, Джейсон Риттер.
Описание: Героиня фильма «Восток» Сара, бывшая сотрудница ФБР, работает на частную контору, занимающуюся разведкой и оценкой рисков крупных корпораций. Головная боль нынешних работодателей Сары – террористическая группировка «Восток», сплотившая экологов-единомышленников, прославившихся необычными актами возмездия. «Зеленые» террористы мстят загрязняющим природу компаниям, руководствуясь известным принципом, в просторечии именуемым «око за око». Могущественному нефтяному магнату, чья буровая установка подпортила экологию в заливе, ребята из «Востока» заливают нефть в вентиляционное устройство. Выполняя приказ начальницы, Сара, назвавшись бродяжкой из Аризоны, становится тайным агентом в группе эко-анархистов, угрожающих еще трем корпорациям. Безупречный послужной список девушки, ее профессионализм и находчивость не позволяют усомниться – с «Востоком» вскоре будет покончено. Однако моральные принципы опытной агентессы неожиданно дают сбой: познакомившись с террористами поближе, Сара влюбляется в их предводителя, харизматичного длинноволосого Бенджи.-Автор рипа: Scarabey
Качество видео: HDRip
Формат видео: AVI | Sample
Видео: 688x288 (2.39:1), 23.976 fps, XviD build 73 ~758 kbps avg, 0.16 bit/pixel
Аудио: 48 kHz, MPEG Layer 3, 2 ch, ~128.00 kbps avg

Скриншоты

Медиаинфо

Format : AVI
Format/Info : Audio Video Interleave
File size : 744 MiB
Duration : 1h 56mn
Overall bit rate : 896 Kbps
Writing application : VirtualDubMod 1.5.10.3 (build 2550/release)
Writing library : VirtualDubMod build 2550/release
Video
ID : 0
Format : MPEG-4 Visual
Format profile : Advanced Simple@L5
Format settings, BVOP : Yes
Format settings, QPel : No
Format settings, GMC : No warppoints
Format settings, Matrix : Custom
Codec ID : XVID
Codec ID/Hint : XviD
Duration : 1h 56mn
Bit rate : 759 Kbps
Width : 688 pixels
Height : 288 pixels
Display aspect ratio : 2.35:1
Frame rate : 23.976 fps
Color space : YUV
Chroma subsampling : 4:2:0
Bit depth : 8 bits
Scan type : Progressive
Bits/(Pixel*Frame) : 0.160
Stream size : 630 MiB (85%)
Writing library : XviD 73
Audio
ID : 1
Format : MPEG Audio
Format version : Version 1
Format profile : Layer 3
Codec ID : 55
Codec ID/Hint : MP3
Duration : 1h 56mn
Bit rate mode : Constant
Bit rate : 128 Kbps
Channel(s) : 2 channels
Sampling rate : 48.0 KHz
Stream size : 106 MiB (14%)
Alignment : Aligned on interleaves
Interleave, duration : 42 ms (1.00 video frame)
Interleave, preload duration : 504 ms
Writing library : LAME3.99r
Encoding settings : -m s -V 4 -q 2 -lowpass 17 -b 128
Скачать

Скачать торрент!

Как скачивать? · Что такое торрент? · Рейтинг и ограничения

Сайт не распространяет и не хранит электронные версии произведений, а лишь предоставляет доступ к создаваемому пользователями каталогу ссылок на торрент-файлы, которые содержат только списки хеш-сумм

[Профиль] [ЛС]
Показать сообщения:    
Ответить на тему

Текущее время: Сегодня 06:00

Часовой пояс: GMT + 4



Вы не можете начинать темы
Вы не можете отвечать на сообщения
Вы не можете редактировать свои сообщения
Вы не можете удалять свои сообщения
Вы не можете голосовать в опросах
Вы не можете прикреплять файлы к сообщениям
Вы не можете скачивать файлы