Зажигание / Combustion (Даниэль Кальпарсоро / Daniel Calparsoro) [2013, Испания, мелодрама, приключения, боевик, HDRip] Dub

Ответить на тему
 
Автор Сообщение

user ®

Стаж: 7 лет 7 месяцев

Сообщений: 20008

Пост Пост: #1 от 13-Окт-2013 12:55

[Цитировать]

Зажигание / Combustion- Страна: Испания
Жанр: мелодрама, приключения, боевик
Год выпуска: 2013
Продолжительность: 01:43:36
Перевод: Профессиональный (дублированный)
Cубтитры: нет-Режиссер: Даниэль Кальпарсоро / Daniel Calparsoro
В ролях: Алекс Гонсалес, Адриана Угарте, Альберто Амман, Мария Кастро, Луис Саера, Марта Ниэто, Кристиан Мулас, Хуан Пабло Шук, Мария Каласса.
Описание: Приключенческая испанская мелодрама расскажет историю о двух влюбленных Ари и Навасе, которые являются профессиональными мошенниками. Она — необыкновенная красотка, каких еще поискать надо! В ее задачу входит соблазнять богатеньких мужчин. Он — дерзкий налетчик, знающий толк в людях, который грабит новоиспеченных ухажеров. Однажды жизнь идеальной пары кардинально меняется, когда Ари и Навас находят себе новую жертву — влиятельного симпатягу Микеля, в которого по уши влюбляется Ари. Что же теперь будет с девушкой, которая оказалась между двух огней?
Кроме горячих испанских страстей в этом фильме мы увидим ряд захватывающих экшн сцен. Кровавые разборки с бандитами, перестрелки с полицией и, конечно же, головокружительные гонки на шикарных автомобилях. Ведь всех героев связывает не только искренняя любовь, но и страсть к сумасшедшим скоростям...-Автор рипа: Scarabey
Качество видео: HDRip
Формат видео: AVI | Sample
Видео: 640x272 (2.35:1), 24 fps, XviD build 73 ~869 kbps avg, 0.21 bit/pixel
Аудио: 48 kHz, MPEG Layer 3, 2 ch, ~128.00 kbps avg

Скриншоты

Медиаинфо

Format : AVI
Format/Info : Audio Video Interleave
File size : 746 MiB
Duration : 1h 43mn
Overall bit rate : 1 007 Kbps
Writing application : VirtualDubMod 1.5.10.2 (build 2540/release)
Writing library : VirtualDubMod build 2540/release
Video
ID : 0
Format : MPEG-4 Visual
Format profile : Advanced Simple@L5
Format settings, BVOP : Yes
Format settings, QPel : No
Format settings, GMC : No warppoints
Format settings, Matrix : Custom
Codec ID : XVID
Codec ID/Hint : XviD
Duration : 1h 43mn
Bit rate : 870 Kbps
Width : 640 pixels
Height : 272 pixels
Display aspect ratio : 2.35:1
Frame rate : 24.000 fps
Color space : YUV
Chroma subsampling : 4:2:0
Bit depth : 8 bits
Scan type : Progressive
Bits/(Pixel*Frame) : 0.208
Stream size : 644 MiB (86%)
Writing library : XviD 73
Audio
ID : 1
Format : MPEG Audio
Format version : Version 1
Format profile : Layer 3
Codec ID : 55
Codec ID/Hint : MP3
Duration : 1h 43mn
Bit rate mode : Constant
Bit rate : 128 Kbps
Channel(s) : 2 channels
Sampling rate : 48.0 KHz
Stream size : 94.9 MiB (13%)
Alignment : Aligned on interleaves
Interleave, duration : 42 ms (1.00 video frame)
Interleave, preload duration : 504 ms
Writing library : LAME3.99r
Encoding settings : -m s -V 4 -q 2 -lowpass 17 -b 128
Скачать

Скачать торрент!

Как скачивать? · Что такое торрент? · Рейтинг и ограничения

Сайт не распространяет и не хранит электронные версии произведений, а лишь предоставляет доступ к создаваемому пользователями каталогу ссылок на торрент-файлы, которые содержат только списки хеш-сумм

[Профиль] [ЛС]
Показать сообщения:    
Ответить на тему

Текущее время: Сегодня 01:51

Часовой пояс: GMT + 4



Вы не можете начинать темы
Вы не можете отвечать на сообщения
Вы не можете редактировать свои сообщения
Вы не можете удалять свои сообщения
Вы не можете голосовать в опросах
Вы не можете прикреплять файлы к сообщениям
Вы не можете скачивать файлы