Ховрский мост / Howrah Bridge (Шакти Саманта / Shakti Samanta) [1958, Индия, Триллер, музыкальный, DVDRip] VO (Nastia)

Ответить на тему
 
Автор Сообщение

user ®

Стаж: 12 лет

Сообщений: 15125

Пост Пост: #1 от 13-Окт-2013 01:25

[Цитировать]

Ховрский мост / Howrah Bridge
Страна: Индия
Жанр: Триллер, музыкальный
Год выпуска: 1958
Продолжительность: 02:23:34
Перевод: Одноголосый закадровый (Nastia)
Перевод субтитров: larisa_k
Cубтитры: нет
Оригинальная аудиодорожка: нет
Режиссер: Шакти Саманта / Shakti Samanta
В ролях: Aшок Кумар, Мадхубала, К.Н.Сингх, Ом Пракаш, Мадан Пури, Дхумал, Каммо, Сундер, Хелен, Мехмуд, Мину Мумтаз, Брахм Бхардвадж, Чаман Пури
Описание: Ракеш живет со своим братом, Маданом, и с его папой в Рангуне. Мадан попал в плохую компанию, продал семейную реликвию за приличную сумму денег и убегает в Индию. Вскоре его труп был найден под Хора-Бридж в Калькутте. Ракеш едет в Калькутту, чтобы узнать тайну смерти Мадана, и также попытаться возвратить семейную реликвию. Его расследование приводит его в теневой отель, которым управляет Дядя Джо, где привлекательная танцовщица по имени Эдна каждую ночь исполняет танцы. Ракеша привлекает Эдна, и он доверяет ей, рассказывая, почему он здесь и она решает помочь ему. Ракеш узнает, что человек по имени Бхику был свидетелем убийства его брата и отправляется, чтобы найти его. Но так и не встретил его, так как Бхику пропал без вести, и никто не знает о его местонахождении. Найдет ли Ракеш семейную реликвию, решит ли эту тайну, полюбит ли Эдну и поймает ли убийц своего брата…
Доп. информация: Мост Ховра или Рабиндра Сету – самый большой консольный мост мира, одна из известных достопримечательностей Калькутты. Он был построен во время Второй мировой войны, в 1943 году, чтобы дать возможность союзным войскам подойти к Бирманскому фронту.
Большое спасибо:
larisa_k за перевод субтитров, за предоставленный озвучку и DVDRip
Nastia за озвучку фильма
Cведение звука: pca1962
Сэмпл: http://multi-up.com/912111

Качество видео: DVDRip
Формат видео: AVI
Видео: XviD, 640x480, 29.97 fps, 1310 kbps
Аудио: MP3, 48 kHz, 2.0 (stereo), 128 kbps

MediaInfo

=== Общие ===
Полное имя : Hovrskiy.most.1958.DVDRip.XviD.pca1962.avi
Формат : AVI
Описание формата : Audio Video Interleave
Размер файла : 1.45 Гб
Длительность : 2ч 23мин
Общий битрейт : 1 449 кбит/сек
Програмное обеспечение : VirtualDubModRus 1.5.10.2 (build 2542/release)
Кодирующая библиотека : VirtualDubMod build 2542/release
=== Видео ===
ID (Идентификатор) : 0
Формат : MPEG-4 Visual
Профиль формата : Advanced Simple@L5
Параметр 'BVOP' : 2
Параметр 'QPel' : Да
Параметр 'GMC' : No warppoints
Параметр 'Matrix' : Default (H.263)
Идентификатор кодека : XVID
Подпись кодека : XviD
Длительность : 2ч 23мин
Битрейт : 1310 кбит/сек
Ширина кадра : 640 пикселей
Высота кадра : 480 пикселей
Соотношение сторон : 4:3
Частота кадров : 29.970 кадров/сек
Цветовое пространство : YUV
Субдискретизация насыщенности : 4:2:0
Глубина (разрядность) : 8 bits
Тип развертки : Прогрессивная
Режим сжатия : С потерями
Бит/(пиксель*кадр) : 0.142
Размер потока : 1.31 Гб (90%)
Кодирующая библиотека : XviD 1.2.1 (UTC 2008-12-04)
=== Аудио ===
ID (Идентификатор) : 1
Формат : MPEG Audio
Версия формата : Version 1
Профиль формата : Layer 3
Режим : Joint stereo
Mode extension : MS Stereo
Идентификатор кодека : 55
Подпись кодека : MP3
Длительность : 2ч 23мин
Тип битрейта : Постоянный
Битрейт : 128 кбит/сек
Канал(ы) : 2 каналов
Частота дискретизации : 48.0 кГц
Режим сжатия : С потерями
Размер потока : 131 Мб (9%)
Расположение потока : Aligned on interleaves
Период чередования : 33 мс (1.00 video frame)
Предварительная загрузка : 504 мс
Кодирующая библиотека : LAME3.98.2

Скриншот c названием фильма

Скачать

Скачать торрент! Ховрский мост / Howrah Bridge (Шакти Саманта / Shakti Samanta) [1958, Индия, Триллер, музыкальный, DVDRip] VO (Nastia)

Как скачивать? · Что такое торрент? · Рейтинг и ограничения

Сайт не распространяет и не хранит электронные версии произведений, а лишь предоставляет доступ к создаваемому пользователями каталогу ссылок на торрент-файлы, которые содержат только списки хеш-сумм

[Профиль] [ЛС]
Показать сообщения:    
Ответить на тему

Текущее время: Сегодня 01:12

Часовой пояс: GMT + 4



Вы не можете начинать темы
Вы не можете отвечать на сообщения
Вы не можете редактировать свои сообщения
Вы не можете удалять свои сообщения
Вы не можете голосовать в опросах
Вы не можете прикреплять файлы к сообщениям
Вы не можете скачивать файлы