Безумный город / Жестокий город / Wicked City / Yiu sau dou si (Таи Кит Мак / Tai Kit Mak) [1992, Гонконг, боевик, мистика, ужасы, DVDRip] VO (Саммо)

Ответить на тему
 
Автор Сообщение

user ®

Стаж: 13 лет

Сообщений: 15071

Пост Пост: #1 от 12-Окт-2013 22:15

[Цитировать]

Жестокий город / Wicked City
Страна: Гонконг
Жанр: боевик, мистика, ужасы
Год выпуска: 1992
Продолжительность: 01:26:42
Перевод: Одноголосый закадровый Саммо
Cубтитры: нет
Оригинальная аудиодорожка: нет
Режиссер: Таи Кит Мак / Tai Kit Mak
В ролях: Джеки Чеунг, Леон Лай, Рой Чеунг, Мишель Рейс, Карман Ли
Описание: 97-ой год, Токио. Оказывается, уже давно среди нас живут так называемые Поглотители, полулюди-полумонстры, питающиеся человеческой кровью и периодически превращающиеся в страшных чудовищ. Существуют и бюро по борьбе с ними. Сотрудник одного из таких бюро Таки работает в паре с полупоглотителем Кеном , но сержант бюро постоянно осаживает Кена, боясь, что его инстинкты рано или поздно вырвутся наружу. А в общине Поглотителей - разлад. Одна часть их, ведомая престарелым героем Тацуи Накадаи и его помощницей Винди , намеревается спокойно осесть в городе, не доставляя хлопот людям, однако вторая, во главе которого стоит его сын Шудо планирует начать выпуск нового смертельного наркотика, с помощью которого он покорит людей.
Сэмпл: http://multi-up.com/912444
Качество видео: DVDRip
Формат видео: AVI
Видео: 640x360 (1.78:1), 25 fps, XviD build 50 ~2192 kbps avg, 0.38 bit/pixel
Аудио: 48 kHz, AC3 Dolby Digital, 2/0 (L,R) ch, ~192 kbps

MediaInfo

Complete name : Wicked City (1992).avi
Format : AVI
Format/Info : Audio Video Interleave
File size : 1.45 GiB
Duration : 1h 26mn
Overall bit rate : 2 395 Kbps
Writing application : VirtualDubMod 1.5.10.3 | www.virtualdub-fr.org || (build 2550/release)
Writing library : VirtualDubMod build 2550/release
Video
ID : 0
Format : MPEG-4 Visual
Format profile : Advanced Simple@L5
Format settings, BVOP : 1
Format settings, QPel : No
Format settings, GMC : No warppoints
Format settings, Matrix : Default (H.263)
Codec ID : XVID
Codec ID/Hint : XviD
Duration : 1h 26mn
Bit rate : 2 193 Kbps
Width : 640 pixels
Height : 360 pixels
Display aspect ratio : 16:9
Frame rate : 25.000 fps
Color space : YUV
Chroma subsampling : 4:2:0
Bit depth : 8 bits
Scan type : Progressive
Compression mode : Lossy
Bits/(Pixel*Frame) : 0.381
Stream size : 1.33 GiB (92%)
Writing library : XviD 1.2.1 (UTC 2008-12-04)
Audio
ID : 1
Format : AC-3
Format/Info : Audio Coding 3
Mode extension : CM (complete main)
Format settings, Endianness : Big
Codec ID : 2000
Duration : 1h 26mn
Bit rate mode : Constant
Bit rate : 192 Kbps
Channel(s) : 2 channels
Channel positions : Front: L R
Sampling rate : 48.0 KHz
Bit depth : 16 bits
Compression mode : Lossy
Stream size : 119 MiB (8%)
Alignment : Split accross interleaves
Interleave, duration : 40 ms (1.00 video frame)
Interleave, preload duration : 500 ms

Скриншоты

Скачать

Скачать торрент! Безумный город / Жестокий город / Wicked City / Yiu sau dou si (Таи Кит Мак / Tai Kit Mak) [1992, Гонконг, боевик, мистика, ужасы, DVDRip] VO (Саммо)

Как скачивать? · Что такое торрент? · Рейтинг и ограничения

Сайт не распространяет и не хранит электронные версии произведений, а лишь предоставляет доступ к создаваемому пользователями каталогу ссылок на торрент-файлы, которые содержат только списки хеш-сумм

[Профиль] [ЛС]
Показать сообщения:    
Ответить на тему

Текущее время: Сегодня 17:04

Часовой пояс: GMT + 4



Вы не можете начинать темы
Вы не можете отвечать на сообщения
Вы не можете редактировать свои сообщения
Вы не можете удалять свои сообщения
Вы не можете голосовать в опросах
Вы не можете прикреплять файлы к сообщениям
Вы не можете скачивать файлы