Шри Рамакришна Парамахамса / Sri Ramakrishna Paramhans (Гурудас Багчи / Gurudas Bagchi) [1979, Индия, художественно - биографический фильм, VHSRip] VO

Ответить на тему
 
Автор Сообщение

user ®

Стаж: 12 лет

Сообщений: 15124

Пост Пост: #1 от 12-Окт-2013 22:15

[Цитировать]

Шри Рамакришна Парамахамса / Sri Ramakrishna Paramhans
Страна: Индия
Жанр: художественный биографический фильм
Год выпуска: 1979
Продолжительность: 2:03:38
Перевод: Профессиональный (одноголосый)
Язык: Русский
Русские субтитры: нет
Режиссер: Гурудас Багчи (Gurudas Bagchi)
В ролях: Гурудас Банерджи в роли Рамакришны
Описание: "Я видел океан, и все реки смешиваются в этом океане. Я видел большое озеро, и все живые существа пьют из него. Только все люди называют его по разному..." Так говорил один из самых великих духовных Учителей Индии, признанный миром как Аватар. Он сам говорил про себя: "Тот кто Рама и тот кто Кришна в одной форме Рамакришна"
Этот фильм является удачной иллюстрацией жизни и духовных поисков этого уникального человека. Здесь показана его жизнь с тех времён, когда он стал молодым жрецом в храме Кали и до периода принятия учеников.
Роль Рамакришны очень удачно сыграл Гурудас Банерджи, ярко передав внешний экспрессивный характер и детскую непосредственность, что так сильно отличало Рамакришну от большинства индийских мудрецов.
Качество видео: VHSRip
Формат видео: AVI
Видео: DivX 5 720x576 25fps [Stream 00] 2,63 ГБ (2828650180 bytes) Bit rate : 2 879 Kbps
Аудио: MPEG Audio Layer 3 44100Hz stereo 160kbps [Stream 01]

MediaInfo

General
Complete name : D:\++Project++\Рамакришна\work\Шри Рамакришна Парамахамса.avi
Format : AVI
Format/Info : Audio Video Interleave
Format profile : OpenDML
File size : 2.63 GiB
Duration : 2h 3mn
Overall bit rate : 3 050 Kbps
Writing library : VirtualDub build 35486/release
Video
ID : 0
Format : MPEG-4 Visual
Format profile : Simple@L1
Format settings, BVOP : No
Format settings, QPel : No
Format settings, GMC : No warppoints
Format settings, Matrix : Default (H.263)
Codec ID : DX50
Codec ID/Hint : DivX 5
Duration : 2h 3mn
Bit rate : 2 879 Kbps
Width : 720 pixels
Height : 576 pixels
Display aspect ratio : 5:4
Frame rate : 25.000 fps
Standard : PAL
Color space : YUV
Chroma subsampling : 4:2:0
Bit depth : 8 bits
Scan type : Interlaced
Scan order : Top Field First
Compression mode : Lossy
Bits/(Pixel*Frame) : 0.278
Stream size : 2.49 GiB (94%)
Writing library : Lavc52.0.0
Audio
ID : 1
Format : MPEG Audio
Format version : Version 1
Format profile : Layer 3
Mode : Joint stereo
Codec ID : 55
Codec ID/Hint : MP3
Duration : 2h 3mn
Bit rate mode : Constant
Bit rate : 160 Kbps
Channel(s) : 2 channels
Sampling rate : 44.1 KHz
Compression mode : Lossy
Stream size : 141 MiB (5%)
Alignment : Split accross interleaves
Interleave, duration : 40 ms (1.00 video frame)
Interleave, preload duration : 500 ms

Скриншоты

Сэмпл: http://yadi.sk/d/toV7CkjSAnZ9M
Скачать

Скачать торрент! Шри Рамакришна Парамахамса / Sri Ramakrishna Paramhans (Гурудас Багчи / Gurudas Bagchi) [1979, Индия, художественно - биографический фильм, VHSRip] VO

Как скачивать? · Что такое торрент? · Рейтинг и ограничения

Сайт не распространяет и не хранит электронные версии произведений, а лишь предоставляет доступ к создаваемому пользователями каталогу ссылок на торрент-файлы, которые содержат только списки хеш-сумм

[Профиль] [ЛС]
Показать сообщения:    
Ответить на тему

Текущее время: Сегодня 13:56

Часовой пояс: GMT + 4



Вы не можете начинать темы
Вы не можете отвечать на сообщения
Вы не можете редактировать свои сообщения
Вы не можете удалять свои сообщения
Вы не можете голосовать в опросах
Вы не можете прикреплять файлы к сообщениям
Вы не можете скачивать файлы