Ночной поезд до Лиссабона / Night Train to Lisbon (Билле Аугуст / Bille August) [2013, Германия, Швейцария, Португалия, триллер, мелодрама, детектив, BDRip-AVC] DVO (HamsterStudio) + Sub Rus

Ответить на тему
 
Автор Сообщение

user ®

Стаж: 7 лет 7 месяцев

Сообщений: 20008

Пост Пост: #1 от 12-Окт-2013 22:15

[Цитировать]

Ночной поезд до Лиссабона / Night Train to Lisbon
Страна: Германия, Швейцария, Португалия
Жанр: триллер, мелодрама, детектив
Год выпуска: 2013
Продолжительность: 01:46:30
Перевод: Любительский(двухголосый закадровый) HamsterStudio
Cубтитры: русские(kon2011),английские
Режиссер: Билле Аугуст / Bille August
В ролях: Джереми Айронс, Мелани Лоран, Джек Хьюстон, Мартина Гедек, Лена Улин, Аугуст Диль, Бруно Ганц, Кристофер Ли, Шарлотта Рэмплинг, Том Кортни
Описание: Раймунд Григориус, швейцарский профессор древних языков, спасает португальскую женщину от самоубийства и находит у нее книгу, написанную португальским автором Амадеу ди Праду, о сопротивлении диктаторскому режиму Антонио ди Оливейра Салазара. Полностью поглощенный книгой главный герой посвящает свою жизнь изучению португальской истории в целом, и в часности работам Амадеу ди Праду...


Сэмпл: http://multi-up.com/912280
Качество видео: BDRip-AVC
Nachtzug.nach.Lissabon.2013.DUAL.COMPLETE.BLURAY-SharpHD
Формат видео: MKV
Видео: h264,1120x604,37:20(1.85:1),25,00fps,2024kbps
Аудио: AC3,48000Hz,448kbps,Channel: 6(5.1),RUS
Аудио 2: AC3,48000Hz,448kbps,Channel: 6(5.1),GER
Формат субтитров: softsub (SRT)

MediaInfo

Video
ID : 1
Format : AVC
Format/Info : Advanced Video Codec
Format profile : High@L4.1
Format settings, CABAC : Yes
Format settings, ReFrames : 7 frames
Codec ID : V_MPEG4/ISO/AVC
Duration : 1h 46mn
Bit rate : 2 024 Kbps
Width : 1 120 pixels
Height : 604 pixels
Display aspect ratio : 1.85:1
Original display aspect ratio : 1.85:1
Frame rate mode : Constant
Frame rate : 25.000 fps
Color space : YUV
Chroma subsampling : 4:2:0
Bit depth : 8 bits
Scan type : Progressive
Bits/(Pixel*Frame) : 0.120
Stream size : 1.46 GiB (67%)
Writing library : x264 core 138 r2358kMod 9e941d1
Encoding settings : cabac=1 / ref=7 / deblock=1:-4:-3 / analyse=0x3:0x113 / me=umh / subme=11 / psy=1 / fade_compensate=0.00 / psy_rd=1.00:0.00 / mixed_ref=1 / me_range=32 / chroma_me=1 / trellis=2 / 8x8dct=1 / cqm=0 / deadzone=21,11 / fast_pskip=1 / chroma_qp_offset=-2 / threads=6 / lookahead_threads=1 / sliced_threads=0 / nr=0 / decimate=0 / interlaced=0 / bluray_compat=0 / constrained_intra=0 / bframes=6 / b_pyramid=2 / b_adapt=2 / b_bias=0 / direct=3 / weightb=1 / open_gop=1 / weightp=2 / keyint=240 / keyint_min=24 / scenecut=40 / intra_refresh=0 / rc_lookahead=240 / rc=2pass / mbtree=1 / bitrate=2024 / ratetol=1.0 / qcomp=0.60 / qpmin=0 / qpmax=69 / qpstep=4 / cplxblur=20.0 / qblur=0.5 / ip_ratio=1.40 / aq=1:1.00
Language : English
Default : Yes
Forced : No
Audio #1
ID : 2
Format : AC-3
Format/Info : Audio Coding 3
Mode extension : CM (complete main)
Format settings, Endianness : Big
Codec ID : A_AC3
Duration : 1h 46mn
Bit rate mode : Constant
Bit rate : 448 Kbps
Channel count : 6 channels
Channel positions : Front: L C R, Side: L R, LFE
Sampling rate : 48.0 KHz
Bit depth : 16 bits
Compression mode : Lossy
Stream size : 341 MiB (15%)
Language : Russian
Default : No
Forced : No
Audio #2
ID : 3
Format : AC-3
Format/Info : Audio Coding 3
Mode extension : CM (complete main)
Format settings, Endianness : Big
Codec ID : A_AC3
Duration : 1h 46mn
Bit rate mode : Constant
Bit rate : 448 Kbps
Channel count : 6 channels
Channel positions : Front: L C R, Side: L R, LFE
Sampling rate : 48.0 KHz
Bit depth : 16 bits
Compression mode : Lossy
Stream size : 341 MiB (15%)
Language : English
Default : No
Forced : No
Text #1
ID : 4
Format : UTF-8
Codec ID : S_TEXT/UTF8
Codec ID/Info : UTF-8 Plain Text
Language : Russian
Default : No
Forced : No
Text #2
ID : 5
Format : UTF-8
Codec ID : S_TEXT/UTF8
Codec ID/Info : UTF-8 Plain Text
Language : Ger
Default : No
Forced : No

Скриншот c названием фильма

Скачать

Скачать торрент!

Как скачивать? · Что такое торрент? · Рейтинг и ограничения

Сайт не распространяет и не хранит электронные версии произведений, а лишь предоставляет доступ к создаваемому пользователями каталогу ссылок на торрент-файлы, которые содержат только списки хеш-сумм

[Профиль] [ЛС]
Показать сообщения:    
Ответить на тему

Текущее время: Сегодня 20:11

Часовой пояс: GMT + 4



Вы не можете начинать темы
Вы не можете отвечать на сообщения
Вы не можете редактировать свои сообщения
Вы не можете удалять свои сообщения
Вы не можете голосовать в опросах
Вы не можете прикреплять файлы к сообщениям
Вы не можете скачивать файлы