Кадры / The Internship (Шон Леви / Shawn Levy) [2013, США, комедия, BDRip-AVC] [Расширенная версия / Unrated] Dub + Original Eng, Sub (Rus, Eng)

Ответить на тему
 
Автор Сообщение

user ®

Стаж: 7 лет 7 месяцев

Сообщений: 20008

Пост Пост: #1 от 12-Окт-2013 22:15

[Цитировать]

КадрыThe Internship«Решают всё»- Страна: США
Жанр: комедия
Год выпуска: 2013
Продолжительность: 02:05:01-Перевод: Профессиональный (полное дублирование)
Оригинальная аудиодорожка:английский.
Субтитры: русские,английские.
Режиссер: Шон Леви / Shawn Levy
В ролях:
Винс Вон (Billy McMahon), Оуэн Уилсон (Nick Campbell), Роуз Бирн (Dana), Макс Мингелла (Graham Hawtrey), Аасиф Мандви (Mr. Chetty), Джош Бренер (Lyle), Дилан О’Брайэн (Stuart), Тия Сиркар (Neha), Тобит Рафаэль (Yo-Yo Santos), Джош Гад (Headphones), Джессика Зор (Marielena), Роб Риггл (Randy)
Дублёры: Пётр Иващенко (Billy McMahon), Илья Бледный (Nick Campbell), Даниил Эльдаров (Graham Hawtrey), Прохор Чеховской (Stuart), Василиса Эльдарова (Library Teen), Александр Дасевич (Google Barista), Александр Новиков (Nick and Billy's Boss)-Описание: Билли и Ник всю жизнь занимаются продажами. Но новый компьютерный мир рушит их карьеру. Стараясь доказать, что они не отстали от жизни, они бросают вызов судьбе, получив желанную стажировку в компании Google вместе с командой лучших студентов колледжей. Но получить доступ в этот фантастический мир - это только половина дела. Сейчас им придется выдержать конкуренцию с самыми лучшими техническими гениями, чтобы доказать, что необходимость - это мать обновления.--
MPAA: PG-13 - Детям до 13 лет просмотр не желателен-Качество: BDRip-AVC (The.Internship.2013.2-In-1.1080p.BluRay.AVC.DTS-HD.MA.5.1)
Контейнер: MKV
Видео: AVC, 1120x476 (2.35:1), 4098 kbps, 23,976 fps, 0,321 bpp
Аудио №1: русский / AC3 / 5.1 / 48 kHz / 448 kbps / Дублированный
Аудио №2: английский / AC3 / 5.1 / 48 kHz / 448 kbps / Eng
Навигация по главам: есть
......................................Source........................................................................BDrip-AVC.......................................


Media Info

x264

x264 [info]: frame I:2119 Avg QP:13.48 size:107972 PSNR Mean Y:49.20 U:51.65 V:51.51 Avg:49.85 Global:49.39
x264 [info]: frame P:44286 Avg QP:15.83 size: 41894 PSNR Mean Y:47.27 U:50.21 V:50.03 Avg:48.01 Global:47.38
x264 [info]: frame B:133449 Avg QP:17.35 size: 13170 PSNR Mean Y:46.52 U:49.52 V:49.30 Avg:47.27 Global:46.64
x264 [info]: consecutive B-frames: 3.8% 3.9% 10.8% 33.7% 14.8% 22.6% 4.2% 4.1% 0.7% 0.3% 0.2% 0.6% 0.3%
x264 [info]: mb I I16..4: 10.4% 61.8% 27.8%
x264 [info]: mb P I16..4: 1.2% 14.6% 2.6% P16..4: 27.9% 28.5% 19.3% 0.0% 0.0% skip: 5.9%
x264 [info]: mb B I16..4: 0.1% 1.2% 0.2% B16..8: 32.3% 17.2% 6.9% direct: 8.3% skip:33.7% L0:39.8% L1:38.5% BI:21.7%
x264 [info]: 8x8 transform intra:76.4% inter:49.3%
x264 [info]: direct mvs spatial:98.5% temporal:1.5%
x264 [info]: coded y,uvDC,uvAC intra: 93.3% 95.2% 91.0% inter: 33.6% 36.9% 24.7%
x264 [info]: i16 v,h,dc,p: 33% 13% 13% 40%
x264 [info]: i8 v,h,dc,ddl,ddr,vr,hd,vl,hu: 16% 12% 10% 8% 10% 11% 10% 11% 12%
x264 [info]: i4 v,h,dc,ddl,ddr,vr,hd,vl,hu: 15% 9% 4% 8% 14% 14% 12% 11% 11%
x264 [info]: i8c dc,h,v,p: 51% 16% 18% 15%
x264 [info]: Weighted P-Frames: Y:1.5% UV:1.0%
x264 [info]: ref P L0: 50.1% 11.5% 16.8% 5.6% 5.1% 3.1% 3.1% 1.6% 1.7% 1.4% 0.2% 0.0%
x264 [info]: ref B L0: 75.1% 12.0% 4.8% 2.7% 1.9% 1.5% 1.1% 0.6% 0.3%
x264 [info]: ref B L1: 94.3% 5.7%
x264 [info]: SSIM Mean Y:0.9885238 (19.402db)
x264 [info]: PSNR Mean Y:46.734 U:49.716 V:49.507 Avg:47.481 Global:46.836 kb/s:4097.00
x264 [total]: encoded 179854 frames, 6.01 fps, 4097.00 kb/s
Уникальный идентификатор : 170988178738039923400036394566164171151 (0x80A3201761D27249A9179DAA5218498F)
Полное имя : D:\The Internship.2013.BDrip-AVC.Froloff777.mkv
Формат : Matroska
Версия формата : Version 4 / Version 2
Размер файла : 4,36 Гбайт
Продолжительность : 2 ч. 5 м.
Общий поток : 4996 Кбит/сек
Дата кодирования : UTC 2013-10-12 06:26:53
Программа кодирования : mkvmerge v6.1.0 ('Old Devil') built on Mar 4 2013 09:10:42
Библиотека кодирования : libebml v1.3.0 + libmatroska v1.4.0
Attachment : Yes
Видео
Идентификатор : 1
Формат : AVC
Формат/Информация : Advanced Video Codec
Профиль формата : High@L4.1
Параметр CABAC формата : Да
Параметр ReFrames формата : 10 кадров
Идентификатор кодека : V_MPEG4/ISO/AVC
Продолжительность : 2 ч. 5 м.
Битрейт : 4098 Кбит/сек
Ширина : 1120 пикселей
Высота : 476 пикселей
Соотношение сторон : 2,35:1
Режим частоты кадров : Постоянный
Частота кадров : 23,976 кадра/сек
Цветовое пространство : YUV
Субдискретизация насыщенности : 4:2:0
Битовая глубина : 8 бит
Тип развёртки : Прогрессивная
Бит/(Пиксели*Кадры) : 0.321
Размер потока : 3,49 Гбайт (80%)
Заголовок : The Internship
Библиотека кодирования : x264 core 130 r2273 b3065e6
Настройки программы : cabac=1 / ref=10 / deblock=1:-3:-2 / analyse=0x3:0x113 / me=umh / subme=10 / psy=1 / psy_rd=1.00:0.05 / mixed_ref=1 / me_range=32 / chroma_me=1 / trellis=2 / 8x8dct=1 / cqm=0 / deadzone=21,11 / fast_pskip=0 / chroma_qp_offset=-3 / threads=6 / lookahead_threads=1 / sliced_threads=0 / nr=0 / decimate=0 / interlaced=0 / bluray_compat=0 / constrained_intra=0 / bframes=12 / b_pyramid=2 / b_adapt=2 / b_bias=0 / direct=3 / weightb=1 / open_gop=0 / weightp=2 / keyint=250 / keyint_min=24 / scenecut=40 / intra_refresh=0 / rc_lookahead=60 / rc=2pass / mbtree=0 / bitrate=4098 / ratetol=1.0 / qcomp=0.65 / qpmin=0 / qpmax=69 / qpstep=4 / cplxblur=20.0 / qblur=0.5 / vbv_maxrate=50000 / vbv_bufsize=62500 / nal_hrd=none / ip_ratio=1.30 / pb_ratio=1.30 / aq=2:1.00
Язык : English
Default : Да
Forced : Нет
Аудио #1
Идентификатор : 2
Формат : AC-3
Формат/Информация : Audio Coding 3
Расширение режима : CM (complete main)
Параметр Endianness формата : Big
Идентификатор кодека : A_AC3
Продолжительность : 2 ч. 5 м.
Вид битрейта : Постоянный
Битрейт : 448 Кбит/сек
Каналы : 6 каналов
Расположение каналов : Front: L C R, Side: L R, LFE
Частота : 48,0 КГц
Битовая глубина : 16 бит
Метод сжатия : С потерями
Размер потока : 401 Мбайт (9%)
Заголовок : Дублированный
Язык : Russian
Default : Да
Forced : Да
Аудио #2
Идентификатор : 3
Формат : AC-3
Формат/Информация : Audio Coding 3
Расширение режима : CM (complete main)
Параметр Endianness формата : Big
Идентификатор кодека : A_AC3
Продолжительность : 2 ч. 5 м.
Вид битрейта : Постоянный
Битрейт : 448 Кбит/сек
Каналы : 6 каналов
Расположение каналов : Front: L C R, Side: L R, LFE
Частота : 48,0 КГц
Битовая глубина : 16 бит
Метод сжатия : С потерями
Размер потока : 401 Мбайт (9%)
Заголовок : Оригинал
Язык : English
Default : Нет
Forced : Нет
Текст #1
Идентификатор : 4
Формат : UTF-8
Идентификатор кодека : S_TEXT/UTF8
Идентификатор кодека/Информация : UTF-8 Plain Text
Язык : Russian
Default : Нет
Forced : Нет
Текст #2
Идентификатор : 5
Формат : UTF-8
Идентификатор кодека : S_TEXT/UTF8
Идентификатор кодека/Информация : UTF-8 Plain Text
Язык : English
Default : Нет
Forced : Нет
Меню
00:00:00.000 : en:Chapter 1
00:05:28.036 : en:Chapter 2
00:07:50.427 : en:Chapter 3
00:14:21.568 : en:Chapter 4
00:19:40.386 : en:Chapter 5
00:25:58.932 : en:Chapter 6
00:28:59.779 : en:Chapter 7
00:32:37.372 : en:Chapter 8
00:35:04.768 : en:Chapter 9
00:36:19.344 : en:Chapter 10
00:41:52.009 : en:Chapter 11
00:44:34.922 : en:Chapter 12
00:48:04.840 : en:Chapter 13
00:50:37.576 : en:Chapter 14
00:58:27.753 : en:Chapter 15
01:02:17.775 : en:Chapter 16
01:06:08.797 : en:Chapter 17
01:11:12.851 : en:Chapter 18
01:14:02.645 : en:Chapter 19
01:15:46.917 : en:Chapter 20
01:18:54.438 : en:Chapter 21
01:21:27.298 : en:Chapter 22
01:24:11.630 : en:Chapter 23
01:26:07.078 : en:Chapter 24
01:27:57.730 : en:Chapter 25
01:29:37.497 : en:Chapter 26
01:31:39.911 : en:Chapter 27
01:37:15.787 : en:Chapter 28
01:42:32.938 : en:Chapter 29
01:48:12.819 : en:Chapter 30
01:54:18.810 : en:Chapter 31
01:57:37.634 : en:Chapter 32

Скриншоты

Скачать

Скачать торрент!

Как скачивать? · Что такое торрент? · Рейтинг и ограничения

Сайт не распространяет и не хранит электронные версии произведений, а лишь предоставляет доступ к создаваемому пользователями каталогу ссылок на торрент-файлы, которые содержат только списки хеш-сумм

[Профиль] [ЛС]
Показать сообщения:    
Ответить на тему

Текущее время: Сегодня 15:55

Часовой пояс: GMT + 4



Вы не можете начинать темы
Вы не можете отвечать на сообщения
Вы не можете редактировать свои сообщения
Вы не можете удалять свои сообщения
Вы не можете голосовать в опросах
Вы не можете прикреплять файлы к сообщениям
Вы не можете скачивать файлы