Копы в юбках / The Heat (Пол Фиг / Paul Feig) [2013, США, комедия, криминал, боевик, детектив, BDRip ] [Unrated] MVO (BaibaKo) + Original

Ответить на тему
 
Автор Сообщение

user ®

Стаж: 7 лет 7 месяцев

Сообщений: 20008

Пост Пост: #1 от 12-Окт-2013 22:15

[Цитировать]

Копы в юбках / The Heat / Unrated- Страна: США
Жанр: комедия, криминал, боевик, детектив
Год выпуска: 2013
Продолжительность: 02:00:20
Перевод: Профессиональный (многоголосый закадровый) BaibaKo
+ Оригинальная звуковая дорожка (English)
Cубтитры: нет-Режиссер: Пол Фиг / Paul Feig
В ролях: Сандра Баллок (Ashburn), Мелисса МакКарти (Mullins), Кэйтлин Олсен (Tatiana), Таран Киллэм (Adam), Томас Ф. Уилсон (Captain Woods), Майкл Рапапорт (Jason Mullins), Демиан Бишир (Hale), Тони Хейл (The John), Билли Барр (Mark Mullins), Энди Бакли (Robin).
Описание: Чопорная агент ФБР не совсем ужилась с сослуживцами, другими словами, они ее просто терпеть не могут. Тут ей поручают вести очень непростое дело с другим копом, она тоже женщина из Бостона, на первый взгляд кажется, что у нее не все в порядке с головой, но поверьте она лучший коп в городе. Вместе они должны выйти на след и поймать русского преступника, за которым давно и безрезультатно гоняется вся полиция. Вся сложность в том, что русский обладает невероятной смекалкой и безграничной фантазией делать дела и не быть замеченным, он просто не предсказуем. Против него выступает такая же непредсказуемая женская логика. Поединок будет "жестоким", интересно кто победит?-Автор рипа: Odessit
Качество видео: BDRip (исходник: Blu-Ray Remux / 1080p)
Формат видео: AVI | Sample
Видео: 720x304 (2.35:1), 23.976 fps, XviD build 73 ~1812 kbps avg, 0.34 bit/pixel
Аудио 1: 48 kHz, AC3 Dolby Digital, 3/2 (L,C,R,l,r) + LFE ch, ~384.00 kbps avg (RUS)
Аудио 2: 48 kHz, AC3 Dolby Digital, 3/2 (L,C,R,l,r) + LFE ch, ~384.00 kbps avg (ENG)

Скриншоты

Медиаинфо

Format : AVI
Format/Info : Audio Video Interleave
Format profile : OpenDML
File size : 2.18 GiB
Duration : 2h 0mn
Overall bit rate : 2 598 Kbps
Movie name : The.Heat.2013.UNRATED.XviD.BDRip
Writing application : VirtualDubMod 1.5.10.3 (build 2550/release)
Writing library : VirtualDubMod build 2550/release
Video
ID : 0
Format : MPEG-4 Visual
Format profile : Advanced Simple@L5
Format settings, BVOP : Yes
Format settings, QPel : No
Format settings, GMC : No warppoints
Format settings, Matrix : Custom
Codec ID : XVID
Codec ID/Hint : XviD
Duration : 2h 0mn
Bit rate : 1 812 Kbps
Width : 720 pixels
Height : 304 pixels
Display aspect ratio : 2.35:1
Frame rate : 23.976 fps
Color space : YUV
Chroma subsampling : 4:2:0
Bit depth : 8 bits
Scan type : Progressive
Bits/(Pixel*Frame) : 0.345
Stream size : 1.52 GiB (70%)
Writing library : XviD 73
Audio #1
ID : 1
Format : AC-3
Format/Info : Audio Coding 3
Mode extension : CM (complete main)
Codec ID : 2000
Duration : 2h 0mn
Bit rate mode : Constant
Bit rate : 384 Kbps
Channel(s) : 6 channels
Channel positions : Front: L C R, Side: L R, LFE
Sampling rate : 48.0 KHz
Bit depth : 16 bits
Stream size : 331 MiB (15%)
Alignment : Split accross interleaves
Interleave, duration : 42 ms (1.00 video frame)
Interleave, preload duration : 500 ms
Audio #2
ID : 2
Format : AC-3
Format/Info : Audio Coding 3
Mode extension : CM (complete main)
Codec ID : 2000
Duration : 2h 0mn
Bit rate mode : Constant
Bit rate : 384 Kbps
Channel(s) : 6 channels
Channel positions : Front: L C R, Side: L R, LFE
Sampling rate : 48.0 KHz
Bit depth : 16 bits
Stream size : 331 MiB (15%)
Alignment : Split accross interleaves
Interleave, duration : 42 ms (1.00 video frame)
Interleave, preload duration : 500 ms
Скачать

Скачать торрент!

Как скачивать? · Что такое торрент? · Рейтинг и ограничения

Сайт не распространяет и не хранит электронные версии произведений, а лишь предоставляет доступ к создаваемому пользователями каталогу ссылок на торрент-файлы, которые содержат только списки хеш-сумм

[Профиль] [ЛС]
Показать сообщения:    
Ответить на тему

Текущее время: Сегодня 14:35

Часовой пояс: GMT + 4



Вы не можете начинать темы
Вы не можете отвечать на сообщения
Вы не можете редактировать свои сообщения
Вы не можете удалять свои сообщения
Вы не можете голосовать в опросах
Вы не можете прикреплять файлы к сообщениям
Вы не можете скачивать файлы