Заклятие / The Conjuring (Джеймс Ван / James Wan) [2013, США, ужасы, триллер, BDRip-AVC] VO (Хихикающий доктор) + Original Eng

Ответить на тему
 
Автор Сообщение

user ®

Стаж: 7 лет 7 месяцев

Сообщений: 20008

Пост Пост: #1 от 12-Окт-2013 22:15

[Цитировать]

Заклятие / The Conjuring- Страна: США
Жанр: ужасы, триллер
Год выпуска: 2013
Продолжительность: 01:51:57-Перевод: Одноголосый закадровый (Хихикающий доктор)
Оригинальная аудиодорожка: (Английская)
Cубтитры: Отсутствуют-Режиссер: Джеймс Ван / James Wan
В ролях: Вера Фармига, Патрик Уилсон, Рон Ливингстон, Лили Тейлор, Шэнли Касвелл, Хейли МакФарланд, Джои Кинг, Маккензи Фой, Кайла Дивер, Шэнон Кук-Чан-Описание: В основе картины лежит реальная история семьи Перрон, которые утверждали, что жили в окружении привидений, как добрых, так и злых. Духи населяли дом на Род-Айленде, в котором Перроны проживали в семидесятых годах XX века.
- -Качество видео: BDRip-AVC Исх: The.Conjuring.2013.1080p.BluRay.AVC.DTS-HD.MA.5.1-PublicHD
Формат видео: MKV
Автор рипа: | dOrOgOi-Видео: 1 148 x 476 (2.40:1), 23.976 fps, AVC, ~1 897 kbps avg, 0.145 bit/pixel
Аудио 1: AC3, 48.0 KHz, 6 channels (Front: L C R, Side: L R, LFE), 448.00 kbps avg | Одноголосый закадровый (Хихикающий доктор)
Аудио 2: AC3, 48.0 KHz, 6 channels (Front: L C R, Side: L R, LFE), 448.00 kbps avg | Оригинал (Английский)

Интересные факты о фильме

* Реальная кукла Аннабель была тряпичной, а не сломанной фарфоровой куклой, как изображено в фильме.
* Для подготовки к своей роли Лили Тейлор просматривала фильм «Изгоняющий дьявола» (1973).
* Эд Уоррен и Лоррэйн Уоррен исследовали дом семьи Перрон с 1973 по 1974 год.
* Лоррэйн Уоррен и Андреа Перрон (Andrea Perron) работали в качестве консультантов режиссера Джеймса Вана и сценаристов этого фильма. Они оба утверждают, что фильм точно отражает реальную историю того, что происходило с семьей Перрон на протяжении 10 лет их проживания на ферме.
* Андреа Перрон написала роман в трех частях на основе событий, происходивших в ее доме. Книга вышла под названием «Дом тьмы, дом света» (House of Darkness, House of Light). События, которые она описала, отражены в фильме. Сама Перрон относится к фильму как к произведению искусства, а не как к художественному произведению.
* Фильм, основанный на истории с домом семьи Перрон, собирались снять на протяжении 20 лет. Впервые эта история всплыла, когда Эд Уоррен показал запись своего интервью с Каролин Перрон продюсеру Тони ДеРоза-Грюнду.
* Режиссер Джеймс Ван пытался передать атмосферу фильмов ужасов 1970-х годов.
* Это второй раз, когда композитор фильма Джозеф Бишара исполнил роль главного призрака в фильме Джеймса Вана. Предыдущим фильмом был «Астрал» (2010).
* Лоррэйн Уоррен сыграла эпизодическую роль пожилой женщины в первом ряду в классе, когда Каролин слушает презентацию Уорренов.
* Штат Род-Айленд не требует от продавцов домов рассказывать о зарегистрированных случаях паранормальных явлений потенциальным покупателям. Вот почему семейство Перрон не знало о всех случившихся там событиях.
* Кинокамера, которую используют Уоренны, — это Bolex H16 Rex-5, выпускавшаяся с 1966 по 1976 год. Отличительной особенностью этой механической камеры является необходимость завода пружинного механизма после каждых 40 секунд съемки, при этом камера вмещает в себя лишь 30 метров (2,5 минуты) пленки. Во всех сценах, где задействована камера, ей снимают больше минуты без всякого завода пружины, свободно отпуская ручку завода, что может привести к поломке камеры.
* Внимание! Дальнейший список фактов о фильме содержит спойлеры. Будьте осторожны.
* Восемь поколений жили и умерли в доме, прежде чем Перроны въехали туда. Андреа Перрон предполагает, что некоторые из духов этих семей никогда не покидали дом. В этом доме было два самоубийства, одна смерть от яда, изнасилование и убийство 11-летней девочки, два утопления и случай, когда четверо мужчин замерзли насмерть. Большинство смертей произошло в семье Арнольд. Вирсавия Шерман как раз из этой семьи.
* Настоящую Вирсавию Шерман подозревали в колдовстве и убийстве несовершеннолетнего ребенка, но ее имя было юридически очищено, после того как суд признал ее невиновной. Она умерла естественной смертью в 1885 году, а не через повешение, как показано в фильме. А похоронена она в Харрисвилле (Беррилвилл, Род-Айленд, США).

Ошибки в фильме (Внимание! Список ошибок в фильме может содержать спойлеры. Будьте осторожны.)

* Когда Эд Уоррен и Лоррэйн Уоррен слушают записанное интервью, стрелка, показывающая уровень звука на проигрывателе, не двигается, как должна при воспроизведении звуковой дорожки.
* В сцене с болотом виден кипарис. Однако они растут гораздо южнее Род-Айленда.
* Белый грузовик GMC, который тянет за собой семейный микроавтобус, появился только в 1973 году, а семья въехала в дом в 1971-м.
* Когда Джуди спускается по лестнице, над ней можно заметить детектор дыма. Хотя такие детекторы были доступны в 1968 году, но тогда они были выполнены в форме пчелиного улья, а не в форме диска, как современные.

MediaInfo & x264 log

x264 log

avs [info]: 1148x476p 1:1 @ 2500000/104271 fps (cfr)
x264 [info]: using SAR=1/1
x264 [info]: using cpu capabilities: MMX2 SSE2Fast SSSE3 FastShuffle SSE4.2 AVX
x264 [info]: profile High, level 4.1
x264 [info]: frame I:1027  Avg QP:17.35  size: 55043
x264 [info]: frame P:34205 Avg QP:18.73  size: 18300
x264 [info]: frame B:125816 Avg QP:19.81  size:  7217
x264 [info]: consecutive B-frames:  2.1%  2.3%  6.8% 19.4% 20.0% 34.5%  6.3%  3.0%  1.5%  0.9%  0.9%  0.9%  0.8%  0.4%  0.3%  0.1%
x264 [info]: mb I  I16..4: 13.1% 68.2% 18.7%
x264 [info]: mb P  I16..4:  0.6%  7.1%  1.0%  P16..4: 32.8% 37.2%  8.5%  2.5%  0.2%    skip: 9.9%
x264 [info]: mb B  I16..4:  0.1%  0.7%  0.1%  B16..8: 36.8% 18.6%  2.4%  direct: 4.4%  skip:36.9%  L0:41.3% L1:48.4% BI:10.3%
x264 [info]: 8x8 transform intra:78.0% inter:57.7%
x264 [info]: direct mvs  spatial:98.3% temporal:1.7%
x264 [info]: coded y,uvDC,uvAC intra: 89.1% 68.0% 38.7% inter: 19.2% 10.6% 0.9%
x264 [info]: i16 v,h,dc,p: 23% 12% 21% 44%
x264 [info]: i8 v,h,dc,ddl,ddr,vr,hd,vl,hu: 10%  7%  6% 10% 14% 14% 13% 13% 13%
x264 [info]: i4 v,h,dc,ddl,ddr,vr,hd,vl,hu: 12%  8%  5%  9% 15% 14% 13% 11% 12%
x264 [info]: i8c dc,h,v,p: 35% 31% 20% 14%
x264 [info]: Weighted P-Frames: Y:4.2% UV:1.4%
x264 [info]: ref P L0: 48.5%  8.9% 17.4%  5.8%  4.7%  3.3%  3.2%  1.5%  1.4%  1.2%  1.1%  0.9%  0.9%  0.9%  0.2%  0.0%
x264 [info]: ref B L0: 75.1% 11.2%  4.9%  2.3%  1.6%  1.3%  1.3%  0.6%  0.5%  0.5%  0.4%  0.2%  0.2%
x264 [info]: ref B L1: 92.8%  7.2%
x264 [info]: kb/s:1894.30
encoded 161048 frames, 6.04 fps, 1894.30 kb/s
General
Unique ID                                : 254355744725589288629394675496246647776 (0xBF5B227084AE7C6592C3BE0B05091BE0)
Complete name                            : E:\Zaklyatie.The.Conjuring.2013.BDRip-AVC.AC3.VO.ENG.by.dOrOgOi.mkv
Format                                   : Matroska
Format version                           : Version 4 / Version 2
File size                                : 2.18 GiB
Duration                                 : 1h 51mn
Overall bit rate                         : 2 792 Kbps
Movie name                               : Zaklyatie.The.Conjuring.2013.BDRip-AVC.AC3.VO.ENG.by.dOrOgOi
Encoded date                             : UTC 2013-10-12 08:12:16
Writing application                      : mkvmerge v6.4.1 ('Omega Point') built on Sep 16 2013 22:05:10
Writing library                          : libebml v1.3.0 + libmatroska v1.4.1
Video
ID                                       : 1
Format                                   : AVC
Format/Info                              : Advanced Video Codec
Format profile                           : High@L4.1
Format settings, CABAC                   : Yes
Format settings, ReFrames                : 14 frames
Codec ID                                 : V_MPEG4/ISO/AVC
Duration                                 : 1h 51mn
Bit rate                                 : 1 897 Kbps
Width                                    : 1 148 pixels
Height                                   : 476 pixels
Display aspect ratio                     : 2.40:1
Frame rate mode                          : Constant
Frame rate                               : 23.976 fps
Color space                              : YUV
Chroma subsampling                       : 4:2:0
Bit depth                                : 8 bits
Scan type                                : Progressive
Bits/(Pixel*Frame)                       : 0.145
Stream size                              : 1.44 GiB (66%)
Title                                    : Zaklyatie.The.Conjuring.2013.BDRip-AVC.AC3.VO.ENG.by.dOrOgOi
Writing library                          : x264 core 119 r2106 07efeb4
Encoding settings                        : cabac=1 / ref=14 / deblock=1:-3:-3 / analyse=0x3:0x133 / me=umh / subme=11 / psy=1 / psy_rd=1.05:0.15 / mixed_ref=1 / me_range=48 / chroma_me=1 / trellis=2 / 8x8dct=1 / cqm=0 / deadzone=21,11 / fast_pskip=0 / chroma_qp_offset=-3 / threads=12 / sliced_threads=0 / nr=0 / decimate=1 / interlaced=0 / bluray_compat=0 / constrained_intra=0 / bframes=15 / b_pyramid=2 / b_adapt=2 / b_bias=0 / direct=3 / weightb=1 / open_gop=0 / weightp=2 / keyint=250 / keyint_min=23 / scenecut=40 / intra_refresh=0 / rc_lookahead=60 / rc=2pass / mbtree=0 / bitrate=1897 / ratetol=1.0 / qcomp=0.60 / qpmin=0 / qpmax=69 / qpstep=4 / cplxblur=20.0 / qblur=0.5 / vbv_maxrate=50000 / vbv_bufsize=62500 / nal_hrd=none / ip_ratio=1.40 / pb_ratio=1.30 / aq=2:1.00
Language                                 : English
Default                                  : Yes
Forced                                   : No
Audio #1
ID                                       : 2
Format                                   : AC-3
Format/Info                              : Audio Coding 3
Mode extension                           : CM (complete main)
Format settings, Endianness              : Big
Codec ID                                 : A_AC3
Duration                                 : 1h 51mn
Bit rate mode                            : Constant
Bit rate                                 : 448 Kbps
Channel count                            : 6 channels
Channel positions                        : Front: L C R, Side: L R, LFE
Sampling rate                            : 48.0 KHz
Bit depth                                : 16 bits
Compression mode                         : Lossy
Stream size                              : 359 MiB (16%)
Title                                    : VO (Хихикающий доктор)
Language                                 : Russian
Default                                  : Yes
Forced                                   : No
Audio #2
ID                                       : 3
Format                                   : AC-3
Format/Info                              : Audio Coding 3
Mode extension                           : CM (complete main)
Format settings, Endianness              : Big
Codec ID                                 : A_AC3
Duration                                 : 1h 51mn
Bit rate mode                            : Constant
Bit rate                                 : 448 Kbps
Channel count                            : 6 channels
Channel positions                        : Front: L C R, Side: L R, LFE
Sampling rate                            : 48.0 KHz
Bit depth                                : 16 bits
Compression mode                         : Lossy
Stream size                              : 359 MiB (16%)
Title                                    : Original (English)
Language                                 : English
Default                                  : No
Forced                                   : No

Source vs Encode

Source

vs Rip
Скачать

Скачать торрент!

Как скачивать? · Что такое торрент? · Рейтинг и ограничения

Сайт не распространяет и не хранит электронные версии произведений, а лишь предоставляет доступ к создаваемому пользователями каталогу ссылок на торрент-файлы, которые содержат только списки хеш-сумм

[Профиль] [ЛС]
Показать сообщения:    
Ответить на тему

Текущее время: Сегодня 05:59

Часовой пояс: GMT + 4



Вы не можете начинать темы
Вы не можете отвечать на сообщения
Вы не можете редактировать свои сообщения
Вы не можете удалять свои сообщения
Вы не можете голосовать в опросах
Вы не можете прикреплять файлы к сообщениям
Вы не можете скачивать файлы