Кадры / The Internship (Шон Леви / Shawn Levy) [2013, США, Комедия, BDRip] [Расширенная версия / Unrated Cut] Dub

Ответить на тему
 
Автор Сообщение

user ®

Стаж: 7 лет 7 месяцев

Сообщений: 20008

Пост Пост: #1 от 12-Окт-2013 22:15

[Цитировать]

Кадры / The Internship
«Решают всё»
- Год выпуска: 2013
Выпущено: США / 20th Century Fox Film Corporation
Жанр: комедия
Продолжительность: 02:05:01
Перевод: Профессиональный (полное дублирование) BD EUR
Субтитры: нет-Режиссер:
Шон Леви / Shawn Levy-В ролях:
Винс Вон (Billy McMahon), Оуэн Уилсон (Nick Campbell), Роуз Бирн (Dana), Макс Мингелла (Graham Hawtrey), Аасиф Мандви (Mr. Chetty), Джош Бренер (Lyle), Дилан О’Брайэн (Stuart), Тия Сиркар (Neha), Тобит Рафаэль (Yo-Yo Santos), Джош Гад (Headphones), Джессика Зор (Marielena)-Описание:
Билли и Ник всю жизнь занимаются продажами. Но новый компьютерный мир рушит их карьеру. Стараясь доказать, что они не отстали от жизни, они бросают вызов судьбе, получив желанную стажировку в компании Google вместе с командой лучших студентов колледжей. Но получить доступ в этот фантастический мир — это только половина дела. Сейчас им придется выдержать конкуренцию с самыми лучшими техническими гениями, чтобы доказать, что необходимость — это мать обновления.-IMDB | КиноПоиск | Сэмпл |-Качество: BDRip [The.Internship.2013.UNRATED.Remux]
Формат: AVI
Видео: 720x304 (2.37:1), 23.976 fps, XviD build 73 ~1276 kbps avg, 0.24 bit/pixel
Аудио: 48 kHz, AC3 Dolby Digital, 3/2 (L,C,R,l,r) + LFE ch, ~384.00 kbps avg
-

Скриншоты

MediaInfo

General
Complete name                            : D:\Kadry_2013_BDRip_UNRATED_by_Dalemake.avi
Format                                   : AVI
Format/Info                              : Audio Video Interleave
File size                                : 1.46 GiB
Duration                                 : 2h 5mn
Overall bit rate                         : 1 670 Kbps
Writing application                      : VirtualDubMod 1.5.10.3 | www.virtualdub-fr.org || (build 2550/release)
Writing library                          : VirtualDubMod build 2550/release
Video
ID                                       : 0
Format                                   : MPEG-4 Visual
Format profile                           : Advanced Simple@L5
Format settings, BVOP                    : 1
Format settings, QPel                    : No
Format settings, GMC                     : No warppoints
Format settings, Matrix                  : Custom
Codec ID                                 : XVID
Codec ID/Hint                            : XviD
Duration                                 : 2h 5mn
Bit rate                                 : 1 277 Kbps
Width                                    : 720 pixels
Height                                   : 304 pixels
Display aspect ratio                     : 2.35:1
Frame rate                               : 23.976 fps
Color space                              : YUV
Chroma subsampling                       : 4:2:0
Bit depth                                : 8 bits
Scan type                                : Progressive
Compression mode                         : Lossy
Bits/(Pixel*Frame)                       : 0.243
Stream size                              : 1.12 GiB (76%)
Writing library                          : XviD 73
Audio
ID                                       : 1
Format                                   : AC-3
Format/Info                              : Audio Coding 3
Mode extension                           : CM (complete main)
Format settings, Endianness              : Big
Codec ID                                 : 2000
Duration                                 : 2h 5mn
Bit rate mode                            : Constant
Bit rate                                 : 384 Kbps
Channel(s)                               : 6 channels
Channel positions                        : Front: L C R, Side: L R, LFE
Sampling rate                            : 48.0 KHz
Bit depth                                : 16 bits
Compression mode                         : Lossy
Stream size                              : 343 MiB (23%)
Alignment                                : Split accross interleaves
Interleave, duration                     : 42 ms (1.00 video frame)
Interleave, preload duration             : 500 ms
-
Скачать

Скачать торрент!

Как скачивать? · Что такое торрент? · Рейтинг и ограничения

Сайт не распространяет и не хранит электронные версии произведений, а лишь предоставляет доступ к создаваемому пользователями каталогу ссылок на торрент-файлы, которые содержат только списки хеш-сумм

[Профиль] [ЛС]
Показать сообщения:    
Ответить на тему

Текущее время: Сегодня 17:44

Часовой пояс: GMT + 4



Вы не можете начинать темы
Вы не можете отвечать на сообщения
Вы не можете редактировать свои сообщения
Вы не можете удалять свои сообщения
Вы не можете голосовать в опросах
Вы не можете прикреплять файлы к сообщениям
Вы не можете скачивать файлы